Айболит-66 (1966) WEBRip 720p от KORSAR

Если Вы не хотите скачивать, Вы всегда можете посмотреть онлайн, просто нажмите кнопку ниже :

Открыть плеер

Torrent_Bot

Торрент-Бот
Бот форума
4 Окт 2016
5
1.004
20
#1





Айболит-66
Год выпуска: 1966
Выпущено: СССР, Мосфильм
Жанр: Музыкальная комедия, сказка, экранизация
Режиссер: Ролан Быков
В ролях: Ролан Быков, Олег Ефремов, Лидия Князева, Евгений Васильев (II), Леонид Енгибаров, Константин Худяков, Гурген Джанибекян, Георгий Совчис, Юрий Мартынов, Владимир Пицек, Владимир Протасенко, Светлана Швайко, Алексей Смирнов (I), Фрунзик Мкртчян, Геннадий Юдин, Игорь Ясулович, Илья Рутберг, Раднэр Муратов, Руслан Ахметов, Людмила Карауш

О фильме: По мотивам сказки Корнея Ивановича Чуковского.
Эксцентрическая музыкальная комедия с элементами цирка и пантомимы, остроумная и изобретательная, о добром докторе Айболите, обезьянке Чичи, собаке Авве, разбойнике Бармалее и его помощниках. Этот яркий остроумный фильм весело и ненавязчиво рассказывает о добре и зле, о справедливости и настоящей дружбе. Рассказывает не только детям, но и взрослым.

Продолжительность: 01:33:36

Качество: WEBRip 720p
Видео: MPEG-4 AVC, 1280x548, 25,000 fps, 9180 Кбит/сек,
Аудио №1: AC3, 6 ch, 448 Кбит/сек
Аудио №2: AC3, 1 ch, 160 Кбит/сек
Субтитры №1: Русские
Субтитры №2: Английские
Навигация по главам: есть (русские заголовки, с описанием главы)

Скриншоты
Инфо-файл
x264 [info]: frame I:765 Avg QP:18.40 size:146325
x264 [info]: frame P:33962 Avg QP:19.76 size: 90002
x264 [info]: frame B:105697 Avg QP:22.04 size: 32305
x264 [info]: consecutive B-frames: 1.2% 2.3% 8.6% 52.0% 17.3% 17.8% 0.7% 0.2% 0.0% 0.0%
Общее
Уникальный идентификатор : 170455789833857717938710120329965936426 (0x803C974AB22C9316BC12FC2D7AEF1F2A)
Полное имя : D:Айболит-66_1966-WEBRip 720p_KORSAR.mkv
Формат : Matroska
Версия формата : Version 2
Размер файла : 6,53 Гбайт
Продолжительность : 1 ч. 33 м.
Общий поток : 9986 Кбит/сек
Название фильма : Айболит-66_1966-WEBRip 720p_KORSAR
Дата кодирования : UTC 2018-12-20 06:32:24
Программа кодирования : mkvmerge v5.8.0 ('No Sleep / Pillow') built on Sep 2 2012 15:37:04
Библиотека кодирования : libebml v1.2.3 + libmatroska v1.3.0

Видео
Идентификатор : 1
Формат : AVC
Формат/Информация : Advanced Video Codec
Профиль формата : [email protected]
Параметр CABAC формата : Да
Параметр ReFrames формата : 11 кадров
Идентификатор кодека : V_MPEG4/ISO/AVC
Продолжительность : 1 ч. 33 м.
Битрейт : 9180 Кбит/сек
Ширина : 1280 пикселей
Высота : 548 пикселей
Соотношение сторон : 2,35:1
Режим частоты кадров : Постоянный
Частота кадров : 25,000 кадров/сек
Цветовое пространство : YUV
Субдискретизация насыщенности : 4:2:0
Битовая глубина : 8 бит
Тип развёртки : Прогрессивная
Бит/(Пиксели*Кадры) : 0.523
Размер потока : 6,00 Гбайт (92%)
Библиотека кодирования : x264 core 152 r2851kMod ba24899
Настройки программы : cabac=1 / ref=11 / deblock=1:-3:-2 / analyse=0x3:0x113 / me=umh / subme=10 / psy=1 / fade_compensate=0.00 / psy_rd=1.05:0.10 / mixed_ref=1 / me_range=40 / chroma_me=1 / trellis=2 / 8x8dct=1 / cqm=0 / deadzone=21,11 / fast_pskip=1 / chroma_qp_offset=-3 / threads=12 / lookahead_threads=2 / sliced_threads=0 / nr=0 / decimate=1 / interlaced=0 / bluray_compat=0 / constrained_intra=0 / bframes=9 / b_pyramid=2 / b_adapt=2 / b_bias=0 / direct=1 / weightb=1 / open_gop=0 / weightp=2 / keyint=250 / keyint_min=25 / scenecut=40 / intra_refresh=0 / rc=crf / mbtree=0 / crf=17.8000 / qcomp=0.63 / qpmin=0 / qpmax=45 / qpstep=4 / ip_ratio=1.40 / pb_ratio=1.30 / aq=1:0.90
Язык : English
Default : Да
Forced : Нет
Основные цвета : BT.709
Характеристики трансфера : BT.709
Коэффициенты матрицы : BT.709

Аудио #1
Идентификатор : 2
Формат : AC-3
Формат/Информация : Audio Coding 3
Расширение режима : CM (complete main)
Параметр Endianness формата : Big
Идентификатор кодека : A_AC3
Продолжительность : 1 ч. 33 м.
Вид битрейта : Постоянный
Битрейт : 448 Кбит/сек
Каналы : 6 каналов
Расположение каналов : Front: L C R, Side: L R, LFE
Частота : 48,0 КГц
Битовая глубина : 16 бит
Метод сжатия : С потерями
Задержка видео : 555 мс.
Размер потока : 300 Мбайт (4%)
Заголовок : Surround 5.1
Язык : Russian
Default : Да
Forced : Нет

Аудио #2
Идентификатор : 3
Формат : AC-3
Формат/Информация : Audio Coding 3
Расширение режима : CM (complete main)
Параметр Endianness формата : Big
Идентификатор кодека : A_AC3
Продолжительность : 1 ч. 33 м.
Вид битрейта : Постоянный
Битрейт : 160 Кбит/сек
Каналы : 1 канал
Расположение каналов : Front: C
Частота : 48,0 КГц
Битовая глубина : 16 бит
Метод сжатия : С потерями
Задержка видео : 555 мс.
Размер потока : 107 Мбайт (2%)
Заголовок : Mono
Язык : Russian
Default : Нет
Forced : Нет

Текст #1
Идентификатор : 4
Формат : UTF-8
Идентификатор кодека : S_TEXT/UTF8
Идентификатор кодека/Информация : UTF-8 Plain Text
Язык : Russian
Default : Нет
Forced : Нет

Текст #2
Идентификатор : 5
Формат : UTF-8
Идентификатор кодека : S_TEXT/UTF8
Идентификатор кодека/Информация : UTF-8 Plain Text
Язык : English
Default : Нет
Forced : Нет

Меню
00:00:00.000 : ru:Пролог
00:06:57.960 : ru:Доктор Айболит
00:12:38.760 : ru:"Скорая помощь"
00:19:46.560 : ru:Шторм
00:23:56.760 : ru:Погоня
00:32:36.960 : ru:Африка
00:37:07.560 : ru:"Будьте здоровы"
00:41:35.760 : ru:В обход
00:45:36.360 : ru:"...пока нам плохо"
00:51:16.560 : ru:Ослы и болваны
00:56:46.560 : ru:Бармалей
00:59:26.160 : ru:Добро и барахло
01:06:22.560 : ru:Вкусное лекарство
01:16:23.760 : ru:Ночь
01:25:23.160 : ru:Обезьяны
01:28:26.160 : ru:До свидания!
 

Вложения

  • 33,6 KB Просмотры: 0
    Личеров 0
    Сидеров 0
    Файлов 1
    Объем 6,5 GB

Привет!

Мы группа людей которые решили помочь другим в решении их проблем, а так же пользователям с поиском самых свежих и качественных инфопродуктов. За 4 с небольшим месяца мы создали этот форум на который заходят ежедневно тысячи человек и посещаемость постоянно растёт. Мы создали панель лицензирования для защиты PHP скриптов от воровства и SEO панель для мониторинга наших сайтов и выбора верной стратегии их развития. Мы надеемся что то что мы создали пригодится Вам и возможно Вы поможете нам развиваться и совершенствоваться вместе с Вами.

Статистика форума

Темы
326.025
Сообщения
344.502
Пользователи
23.002
Новый пользователь
Vitaloy208621

Приложения форума для iOS и Android


У ркн там нет власти ;)
Гостевуха
Помощь Пользователи
    sntk Chat Bot: sntk покинул(а) комнату.