Амитивилль 1992: Вопрос времени / Amityville: It's About Time (1992) WEB-DL 1080p | A

Если Вы не хотите скачивать, Вы всегда можете посмотреть онлайн, просто нажмите кнопку ниже :

Открыть плеер

Torrent_Bot

Торрент-Бот
Бот форума
4 Окт 2016
5
1.004
20
#1



Информация о фильме
Название: Амитивилль 1992: Вопрос времени
Оригинальное название: Amityville: It's About Time
Год выхода: 1992
Жанр: ужасы
Режиссер: Тони Рэндел
В ролях: Стефен Махт, Шон Уэзерли, Меган Уорд, Дэймон Мартин, Джонатан Пеннер, Нита Талбот, Дин Кохрэн, Терри Снелл, Кевин Борланд, Маргарита Франко

Описание: Архитектор Джейкоб Стерлинг возвращается после деловой встречи в Нью-Йорке к своей семье, купив в подарок каминные часы в антикварном магазине. Но он даже не подозревал об их происхождении. А ведь они стояли в проклятом доме в Амитивилле. И с наступлением темноты сверхъестественные силы пытаются обрести контроль над жизнями членов семьи Стерлинг.



Страна: США
Продолжительность: 01:35:29
Перевод: авторский (одноголосый закадровый) Юрий Живов
Субтитры: английские
Оригинальная аудиодорожка: английский

Файл
Качество: WEB-DL 1080p
Видео: MPEG-4 AVC, 10000 kbps, 23.976 fps, 1920x1080
Аудио 1: Russian, AC3, 48.0 KHz, 2ch, 192 kbps | Юрий Живов
Аудио 2: English, AAC, 48.0 KHz, 2ch, 125 kbps

Автор релиза: GoldDust

Скриншоты
MediaInfo
General
Unique ID : 51381820859518703366589367515986244248 (0x26A7C75B713A9DB1F7B7777300DBB298)
Complete name : Amityville.6.Its.About.Time.1992.WEB-DL.1080p.mkv
Format : Matroska
Format version : Version 4
File size : 6.86 GiB
Duration : 1 h 35 min
Overall bit rate : 10.3 Mb/s
Encoded date : UTC 2019-01-04 12:23:45
Writing application : mkvmerge v25.0.0 ('Prog Noir') 64-bit
Writing library : libebml v1.3.6 + libmatroska v1.4.9

Video
ID : 1
Format : AVC
Format/Info : Advanced Video Codec
Format profile : [email protected]
Format settings : CABAC / 4 Ref Frames
Format settings, CABAC : Yes
Format settings, RefFrames : 4 frames
Format settings, GOP : M=4, N=48
Codec ID : V_MPEG4/ISO/AVC
Duration : 1 h 35 min
Bit rate mode : Constant
Bit rate : 10 000 kb/s
Width : 1 920 pixels
Height : 1 080 pixels
Display aspect ratio : 16:9
Frame rate mode : Constant
Frame rate : 23.976 (24000/1001) FPS
Color space : YUV
Chroma subsampling : 4:2:0
Bit depth : 8 bits
Scan type : Progressive
Bits/(Pixel*Frame) : 0.201
Stream size : 6.65 GiB (97%)
Title : Amityville.Its.About.Time.1992.1080p.AMZN.WEB-DL.AAC2.0.H.264-NTG
Language : English
Default : Yes
Forced : No
Color range : Limited
Color primaries : BT.709
Transfer characteristics : BT.709
Matrix coefficients : BT.709

Audio #1
ID : 2
Format : AC-3
Format/Info : Audio Coding 3
Commercial name : Dolby Digital
Codec ID : A_AC3
Duration : 1 h 35 min
Bit rate mode : Constant
Bit rate : 192 kb/s
Channel(s) : 2 channels
Channel layout : L R
Sampling rate : 48.0 kHz
Frame rate : 31.250 FPS (1536 SPF)
Bit depth : 16 bits
Compression mode : Lossy
Stream size : 131 MiB (2%)
Title : AVO Юрий Живов |VHS|
Language : Russian
Service kind : Complete Main
Default : Yes
Forced : No

Audio #2
ID : 3
Format : AAC LC
Format/Info : Advanced Audio Codec Low Complexity
Codec ID : A_AAC-2
Duration : 1 h 35 min
Bit rate : 125 kb/s
Channel(s) : 2 channels
Channel layout : L R
Sampling rate : 48.0 kHz
Frame rate : 46.875 FPS (1024 SPF)
Compression mode : Lossy
Stream size : 85.7 MiB (1%)
Title : Original
Language : English
Default : No
Forced : No

Text
ID : 4
Format : UTF-8
Codec ID : S_TEXT/UTF8
Codec ID/Info : UTF-8 Plain Text
Duration : 1 h 35 min
Bit rate : 50 b/s
Count of elements : 1589
Stream size : 35.0 KiB (0%)
Title : SDH
Language : English
Default : No
Forced : No
 

Вложения

  • 138,1 KB Просмотры: 0
    Личеров 0
    Сидеров 0
    Файлов 1
    Объем 6,9 GB

Похожие темы

Привет!

Мы группа людей которые решили помочь другим в решении их проблем, а так же пользователям с поиском самых свежих и качественных инфопродуктов. За 4 с небольшим месяца мы создали этот форум на который заходят ежедневно тысячи человек и посещаемость постоянно растёт. Мы создали панель лицензирования для защиты PHP скриптов от воровства и SEO панель для мониторинга наших сайтов и выбора верной стратегии их развития. Мы надеемся что то что мы создали пригодится Вам и возможно Вы поможете нам развиваться и совершенствоваться вместе с Вами.

Статистика форума

Темы
324.994
Сообщения
343.394
Пользователи
22.931
Новый пользователь
187cult

Приложения форума для iOS и Android


У ркн там нет власти ;)
Гостевуха
Помощь Пользователи
    sntk Chat Bot: sntk покинул(а) комнату.