Амитивилль 4: Зло спасается / Amityville: The Evil Escapes (1989) WEB-DL 1080p | A

Если Вы не хотите скачивать, Вы всегда можете посмотреть онлайн, просто нажмите кнопку ниже :

Открыть плеер

Torrent_Bot

Торрент-Бот
Бот форума
4 Окт 2016
5
1.004
20
#1



Информация о фильме
Название: Амитивилль 4: Зло спасается
Оригинальное название: Amityville: The Evil Escapes
Год выхода: 1989
Жанр: ужасы
Режиссер: Сэндор Стерн
В ролях: Пэтти Дьюк, Джейн Уайатт, Фредрик Лене, Лу Хэнкок, Брэнди Голд, Зои Триллинг, Арон Эйзенберг, Норман Ллойд, Роберт Алан Браун, Глория Кромвелл

Описание: Священники во главе с отцом Манфредом пытаются провести обряд изгнания духов из проклятого дома в Амитивилле. Отец Кибблер заходит в комнату, где находится странная огромная лампа. Во время ритуального обряда некая светящаяся энергия по электрическому шнуру проникает в лампу. Одновременно перед отцом Кибблером появляется искаженное демоническое лицо, и что-то швыряет священника через всю комнату. На следующий день отец Манфред обследует дом и с удовлетворением отмечает, что зло покинуло его.

Тем временем начинается распродажа вещей из дома. Хелен Ройс решает приобрести лампу и в качестве шутливого подарка отправить ее своей сестре Элис в Калифорнию. Но когда Хелен несла лампу домой, то неосторожно поранила о нее палец. Вскоре Элис получает лампу и показывает ее своей только что овдовевшей дочери Нэнси, оставшейся с тремя ребятишками. Младшая дочь Нэнси Джессика эмоционально подавлена после смерти отца и до сих пор верит, что он жив. Естественно, вскоре в доме Элис начинают происходить странные вещи.



Страна: США
Продолжительность: 01:35:29
Перевод 1: авторский (одноголосый закадровый) Сергей Визгунов
Перевод 2: авторский (одноголосый закадровый) Сергей Кузнецов
Субтитры: английские
Оригинальная аудиодорожка: английский

Файл
Качество: WEB-DL 1080p
Видео: MPEG-4 AVC, 10000 kbps, 23.976 fps, 1920x1080
Аудио 1: Russian, AC3, 48.0 KHz, 2ch, 192 kbps | Сергей Визгунов
Аудио 2: Russian, AC3, 48.0 KHz, 2ch, 192 kbps | Сергей Кузнецов
Аудио 3: English, AAC, 48.0 KHz, 2ch, 125 kbps

Автор релиза: GoldDust

Скриншоты
MediaInfo
General
Unique ID : 332716264982263058904327513029802190691 (0xFA4ED25F9C4FD420BC74CCA5690BE763)
Complete name : Amityville.4.The.Evil.Escapes.1989.WEB-DL.1080p.mkv
Format : Matroska
Format version : Version 4
File size : 6.98 GiB
Duration : 1 h 35 min
Overall bit rate : 10.5 Mb/s
Encoded date : UTC 2019-01-04 12:48:38
Writing application : mkvmerge v25.0.0 ('Prog Noir') 64-bit
Writing library : libebml v1.3.6 + libmatroska v1.4.9

Video
ID : 1
Format : AVC
Format/Info : Advanced Video Codec
Format profile : [email protected]
Format settings : CABAC / 4 Ref Frames
Format settings, CABAC : Yes
Format settings, RefFrames : 4 frames
Format settings, GOP : M=4, N=48
Codec ID : V_MPEG4/ISO/AVC
Duration : 1 h 35 min
Bit rate mode : Constant
Bit rate : 10 000 kb/s
Width : 1 920 pixels
Height : 1 080 pixels
Display aspect ratio : 16:9
Frame rate mode : Constant
Frame rate : 23.976 (24000/1001) FPS
Color space : YUV
Chroma subsampling : 4:2:0
Bit depth : 8 bits
Scan type : Progressive
Bits/(Pixel*Frame) : 0.201
Stream size : 6.64 GiB (95%)
Title : Amityville.The.Evil.Escapes.1989.1080p.AMZN.WEB-DL.AAC2.0.H.264-NTG
Language : English
Default : Yes
Forced : No
Color range : Limited
Color primaries : BT.709
Transfer characteristics : BT.709
Matrix coefficients : BT.709

Audio #1
ID : 2
Format : AC-3
Format/Info : Audio Coding 3
Commercial name : Dolby Digital
Codec ID : A_AC3
Duration : 1 h 35 min
Bit rate mode : Constant
Bit rate : 192 kb/s
Channel(s) : 2 channels
Channel layout : L R
Sampling rate : 48.0 kHz
Frame rate : 31.250 FPS (1536 SPF)
Bit depth : 16 bits
Compression mode : Lossy
Stream size : 131 MiB (2%)
Title : AVO Сергей Визгунов
Language : Russian
Service kind : Complete Main
Default : Yes
Forced : No

Audio #2
ID : 3
Format : AC-3
Format/Info : Audio Coding 3
Commercial name : Dolby Digital
Codec ID : A_AC3
Duration : 1 h 35 min
Bit rate mode : Constant
Bit rate : 192 kb/s
Channel(s) : 2 channels
Channel layout : L R
Sampling rate : 48.0 kHz
Frame rate : 31.250 FPS (1536 SPF)
Bit depth : 16 bits
Compression mode : Lossy
Stream size : 131 MiB (2%)
Title : AVO Сергей Кузнецов
Language : Russian
Service kind : Complete Main
Default : No
Forced : No

Audio #3
ID : 4
Format : AAC LC
Format/Info : Advanced Audio Codec Low Complexity
Codec ID : A_AAC-2
Duration : 1 h 35 min
Bit rate : 125 kb/s
Channel(s) : 2 channels
Channel layout : L R
Sampling rate : 48.0 kHz
Frame rate : 46.875 FPS (1024 SPF)
Compression mode : Lossy
Stream size : 85.7 MiB (1%)
Title : Original
Language : English
Default : No
Forced : No

Text
ID : 5
Format : UTF-8
Codec ID : S_TEXT/UTF8
Codec ID/Info : UTF-8 Plain Text
Duration : 1 h 35 min
Bit rate : 55 b/s
Count of elements : 1579
Stream size : 38.5 KiB (0%)
Title : SDH
Language : English
Default : No
Forced : No
 

Вложения

  • 140,5 KB Просмотры: 0
    Личеров 0
    Сидеров 0
    Файлов 1
    Объем 7 GB

Похожие темы

Привет!

Мы группа людей которые решили помочь другим в решении их проблем, а так же пользователям с поиском самых свежих и качественных инфопродуктов. За 4 с небольшим месяца мы создали этот форум на который заходят ежедневно тысячи человек и посещаемость постоянно растёт. Мы создали панель лицензирования для защиты PHP скриптов от воровства и SEO панель для мониторинга наших сайтов и выбора верной стратегии их развития. Мы надеемся что то что мы создали пригодится Вам и возможно Вы поможете нам развиваться и совершенствоваться вместе с Вами.

Статистика форума

Темы
324.994
Сообщения
343.389
Пользователи
22.925
Новый пользователь
Alligator007

Приложения форума для iOS и Android


У ркн там нет власти ;)
Гостевуха
Помощь Пользователи
    sntk Chat Bot: sntk покинул(а) комнату.