Бабуся (2003) DVDRip-AVC от KORSAR

Если Вы не хотите скачивать, Вы всегда можете посмотреть онлайн, просто нажмите кнопку ниже :

Открыть плеер

Torrent_Bot

Торрент-Бот
Бот форума
4 Окт 2016
5
1.004
20
#1
Информация о фильме
Название: Бабуся
Год выхода: 2003
Жанр:Драма
Режиссер: Лидия Боброва
В ролях: Нина Шубина, Ольга Онищенко, Анна Овсянникова, Владимир Кулаков, Сергей Ануфриев, Юрий Овсянко, Валентина Черкозьянова, Мария Лобачева, Сергей Гамов, Тамара Цыганова, Поля Тильге, Сергей Кабановский, Павел Деревянко, Галина Волкова, Людмила Моторная, Игорь Тихоненко, Екатерина Слободян, Галина Бокашевская, Владимир Баранов

О фильме: Бабуся – так ласково звали ее внуки, для которых она была главным человеком на свете. Прошли годы. Внуки выросли, обзавелись своими семьями. Бабушка продала свой дом и вырученные деньги отдала внукам на обзаведение, а сама осталась жить с дочерью и зятем в полученной ими городской квартире. Но тут случилась беда – тяжело заболела, а потом и умерла дочь Вера. Зять категорически отказался жить с бывшей свекровью. Он собирался заново устроить свою личную жизнь и не хотел брать на себя такую обузу. Оставались внуки. Но у каждого из них свои причины не брать старую женщину к себе и баба Тося тайком уходит в зимнюю холодную ночь. Уходит, чтобы вернуться в свое прошлое, где ее все любили, где она была всем нужна, где стоит среди вечного лета и детских голосов ее нетронутый дом. И она смотрит на него и на нас, а откуда-то издалека-издалека доносится голос: «Бабуся!»



Страна: Россия, Франция
Студия: Ленфильм
Продолжительность: 01:35:06
Перевод: Не требуется

Файл
Кодек: х264
Качество: DVDRip-AVC
Видео: MPEG-4 AVC, [email protected], 25.000 fps, 2500 Кбит/с
Аудио: AC3, 6 ch, 384 Кбит/с
Субтитры: Нет

Релиз от:

Награды
Главная премия на МКФ в Париже.

Кинотавр, 2003 год
Победитель (1):
Лучшая женская роль (Анна Овсянникова)
Номинации (1):
Главный приз «Золотая роза»

Карловы Вары, 2003 год
Победитель (3):
Специальный приз жюри
Приз экуменического (христианского) жюри
Приз «Дон Кихот»
Номинации (1):
Хрустальный глобус
Скриншоты
MediaInfo
x264 [info]: frame I:636 Avg QP:18.53 size: 77987
x264 [info]: frame P:33098 Avg QP:19.74 size: 33138
x264 [info]: frame B:108918 Avg QP:21.55 size: 5848

=====================================

Общее
Уникальный идентификатор : 184134188326139402501751994315485142121 (0x8A86F467C2F28C709823527F888EDC69)
Полное имя : Бабуся.2003.DVDRip-AVC.KORSAR.mkv
Формат : Matroska
Версия формата : Version 2
Размер файла : 1,92 Гбайт
Продолжительность : 1 ч. 35 м.
Общий поток : 2886 Кбит/сек
Дата кодирования : UTC 2017-09-26 05:20:02
Программа кодирования : mkvmerge v7.8.0 ('River Man') 32bit built on Apr 3 2015 12:11:22
Библиотека кодирования : libebml v1.3.1 + libmatroska v1.4.2

Видео
Идентификатор : 1
Формат : AVC
Формат/Информация : Advanced Video Codec
Профиль формата : [email protected]
Параметр CABAC формата : Да
Параметр ReFrames формата : 13 кадров
Идентификатор кодека : V_MPEG4/ISO/AVC
Продолжительность : 1 ч. 35 м.
Битрейт : 2500 Кбит/сек
Ширина : 716 пикселей
Высота : 456 пикселей
Соотношение сторон : 5:3
Соотношение сторон в оригинале : 5:3
Режим частоты кадров : Постоянный
Частота кадров : 25,000 кадров/сек
Цветовое пространство : YUV
Субдискретизация насыщенности : 4:2:0
Битовая глубина : 8 бит
Тип развёртки : Прогрессивная
Бит/(Пиксели*Кадры) : 0.306
Размер потока : 1,62 Гбайт (85%)
Библиотека кодирования : x264 core 148 r2744kMod b97ae06
Настройки программы : cabac=1 / ref=13 / deblock=1:-2:-2 / analyse=0x3:0x133 / me=umh / subme=10 / psy=1 / fade_compensate=0.00 / psy_rd=1.05:0.10 / mixed_ref=1 / me_range=32 / chroma_me=1 / trellis=2 / 8x8dct=1 / cqm=0 / deadzone=21,11 / fast_pskip=0 / chroma_qp_offset=-3 / threads=6 / lookahead_threads=1 / sliced_threads=0 / nr=0 / decimate=0 / interlaced=0 / bluray_compat=0 / constrained_intra=0 / bframes=12 / b_pyramid=2 / b_adapt=2 / b_bias=0 / direct=3 / weightb=1 / open_gop=0 / weightp=2 / keyint=250 / keyint_min=25 / scenecut=40 / intra_refresh=0 / rc=2pass / mbtree=0 / bitrate=2500 / ratetol=1.0 / qcomp=0.63 / qpmin=0 / qpmax=39 / qpstep=4 / cplxblur=20.0 / qblur=0.5 / ip_ratio=1.10 / pb_ratio=1.30 / aq=1:1.00
Язык : Russian
Default : Да
Forced : Нет
Цветовой диапазон : Limited
Основные цвета : BT.601 PAL
Характеристики трансфера : BT.470 System B, BT.470 System G
Коэффициенты матрицы : BT.601

Аудио
Идентификатор : 2
Формат : AC-3
Формат/Информация : Audio Coding 3
Параметр Endianness формата : Big
Идентификатор кодека : A_AC3
Продолжительность : 1 ч. 35 м.
Вид битрейта : Постоянный
Битрейт : 384 Кбит/сек
Каналы : 6 каналов
Расположение каналов : Front: L C R, Side: L R, LFE
Частота : 48,0 КГц
Частота кадров : 31,250 кадров/сек (1536 spf)
Битовая глубина : 16 бит
Метод сжатия : С потерями
Размер потока : 261 Мбайт (13%)
Язык : Russian
Default : Да
Forced : Нет
 

Вложения

  • 20,2 KB Просмотры: 0
    Личеров 0
    Сидеров 0
    Файлов 1
    Объем 1,9 GB

Привет!

Мы группа людей которые решили помочь другим в решении их проблем, а так же пользователям с поиском самых свежих и качественных инфопродуктов. За 4 с небольшим месяца мы создали этот форум на который заходят ежедневно тысячи человек и посещаемость постоянно растёт. Мы создали панель лицензирования для защиты PHP скриптов от воровства и SEO панель для мониторинга наших сайтов и выбора верной стратегии их развития. Мы надеемся что то что мы создали пригодится Вам и возможно Вы поможете нам развиваться и совершенствоваться вместе с Вами.

Статистика форума

Темы
324.891
Сообщения
343.165
Пользователи
22.790
Новый пользователь
elegia

Онлайн статистика

Пользователей онлайн
381
Гостей онлайн
4.010
Всего посетителей
4.391

Приложения форума для iOS и Android


У ркн там нет власти ;)
Гостевуха
Помощь Пользователи
    Captain @ Captain: Батя в здание