Белеет парус одинокий / Дума про козака Голоту (1937) DVDRip-AVC от KORSAR

Если Вы не хотите скачивать, Вы всегда можете посмотреть онлайн, просто нажмите кнопку ниже :

Открыть плеер

Torrent_Bot

Торрент-Бот
Бот форума
4 Окт 2016
5
1.004
20
#1


Белеет парус одинокий / Дума про козака Голоту

Год выпуска: 1937
Жанр: Революционный, детский фильм
Продолжительность: 01:20:33 + 01:17:46
Перевод: Не требуется

Режиссер: Владимир Легошин / Игорь Савченко
В ролях: Игорь Бут, Борис Рунге, Александр Мельников, Николай Плотников, Александр Чекаевский, Иван Пельтцер, Федор Никитин, Ирина Большакова, Даниил Сагал в фильме "Белеет парус одинокий"
Константин Нассонов, Леонид Шехтман, Константин Тыртов, Нина Русинова, Николай Соколов, Виктор Селезнев, Николай Горлов, Фаина Раневская, Александр Гречаный, Константин Старостин в фильме "Дума про козака Голоту"

Описание:
Белеет парус одинокий : Фильм, поставленный по повести Валентина Катаева "Белеет парус одинокий", имеет долгую экранную судьбу. Его снимали к двадцатой годовщине Октябрьской революции, но он продержался в списках любимых подростками приключенческих кинолент не одно десятилетие.
События, описанные в этом произведении, разворачивались в Одессе в 1905 году, вскоре после подавления восстания на броненосце "Потемкин". И в картине эти реальные исторические события показаны с точки зрения двух мальчиков - Пети и Гаврика. Вместе с ними зритель оказывается в самой гуще происходящего.
Катаев написал сценарий и принимал активное участие в работе над фильмом. Он утвердил кинопробы, ездил для уточнения мест съемки в Одессу, рассказывал о происшествиях, которым был очевидцем тридцать лет назад, в общем, являлся главным советчиком режиссера.
Дума про козака Голоту : Фаина Раневская в героико-приключенческом фильме по мотивам повести Аркадия Гайдара "РВС". О друзьях - подростках Сашко и Жигане, оказавшихся в вихре событий Гражданской войны.



Кодек: х264
Качество: DVDRip-AVC
Видео: MPEG-4 AVC, 2500-2750 Кбит/с, 696х[email protected], 692х[email protected], 25 fps,
Аудио: АС3, 2 сh, 192 Кбит/с

Инфо файл
x264 [info]: frame I:787 Avg QP:17.62 size: 60486
x264 [info]: frame P:30569 Avg QP:20.10 size: 28389
x264 [info]: frame B:89471 Avg QP:21.65 size: 8339

Общее
Уникальный идентификатор : 200609682863750980970979990775646288493 (0x96EC050051EA27D08D677573D4F67A6D)
Полное имя : J:сссрБелеет парус одинокий-Дума про козака ГолотуБелеет парус одинокий 1937_DVDRip-AVC_KORSAR.mkv
Формат : Matroska
Версия формата : Version 2
Размер файла : 1,69 Гбайт
Продолжительность : 1 ч. 20 м.
Общий поток : 3008 Кбит/сек
Дата кодирования : UTC 2018-12-27 06:04:47
Программа кодирования : mkvmerge v5.8.0 ('No Sleep / Pillow') built on Sep 2 2012 15:37:04
Библиотека кодирования : libebml v1.2.3 + libmatroska v1.3.0

Видео
Идентификатор : 1
Формат : AVC
Формат/Информация : Advanced Video Codec
Профиль формата : [email protected]
Настройки формата : CABAC / 16 Ref Frames
Параметр CABAC формата : Да
Параметр RefFrames формата : 16 кадров
Идентификатор кодека : V_MPEG4/ISO/AVC
Продолжительность : 1 ч. 20 м.
Битрейт : 2750 Кбит/сек
Ширина : 692 пикселя
Высота : 566 пикселей
Соотношение сторон : 4:3
Соотношение сторон в оригинале : 4:3
Режим частоты кадров : Постоянный
Частота кадров : 25,000 кадров/сек
Цветовое пространство : YUV
Субдискретизация насыщенности : 4:2:0
Битовая глубина : 8 бит
Тип развёртки : Прогрессивная
Бит/(Пиксели*Кадры) : 0.281
Размер потока : 1,51 Гбайт (89%)
Библиотека кодирования : x264 core 152 r2851kMod ba24899
Настройки программы : cabac=1 / ref=16 / deblock=1:-2:1 / analyse=0x3:0x133 / me=umh / subme=11 / psy=1 / fade_compensate=0.00 / psy_rd=1.05:0.10 / mixed_ref=1 / me_range=48 / chroma_me=1 / trellis=2 / 8x8dct=1 / cqm=0 / deadzone=21,11 / fast_pskip=0 / chroma_qp_offset=-3 / threads=12 / lookahead_threads=2 / sliced_threads=0 / nr=0 / decimate=0 / interlaced=0 / bluray_compat=0 / constrained_intra=0 / bframes=9 / b_pyramid=2 / b_adapt=2 / b_bias=0 / direct=3 / weightb=1 / open_gop=0 / weightp=2 / keyint=250 / keyint_min=25 / scenecut=40 / intra_refresh=0 / rc_lookahead=40 / rc=2pass / mbtree=0 / bitrate=2750 / ratetol=1.0 / qcomp=0.60 / qpmin=0 / qpmax=39 / qpstep=4 / cplxblur=20.0 / qblur=0.5 / vbv_maxrate=50000 / vbv_bufsize=62500 / nal_hrd=none / filler=0 / ip_ratio=1.25 / pb_ratio=1.30 / aq=1:1.00
Язык : English
Default : Да
Forced : Нет
Цветовой диапазон : Limited
Основные цвета : BT.601 PAL
Характеристики трансфера : BT.470 System B, BT.470 System G
Коэффициенты матрицы : BT.470 System B, BT.470 System G

Аудио
Идентификатор : 2
Формат : AC-3
Формат/Информация : Audio Coding 3
Параметр Endianness формата : Big
Идентификатор кодека : A_AC3
Продолжительность : 1 ч. 20 м.
Вид битрейта : Постоянный
Битрейт : 256 Кбит/сек
Каналы : 2 канала
Расположение каналов : Front: L R
Частота : 48,0 КГц
Частота кадров : 31,250 кадров/сек (1536 SPF)
Битовая глубина : 16 бит
Метод сжатия : С потерями
Размер потока : 147 Мбайт (9%)
Язык : Russian
Default : Да
Forced : Нет
Скриншоты Белеет парус одинокий
Инфо файл
x264 [info]: frame I:594 Avg QP:16.91 size: 61043
x264 [info]: frame P:25482 Avg QP:19.50 size: 29036
x264 [info]: frame B:90575 Avg QP:21.26 size: 7532

Общее
Уникальный идентификатор : 233578603080595740688206705053692089877 (0xAFB99A44433FB3ADA661C82E88D85615)
Полное имя : J:сссрБелеет парус одинокий-Дума про козака ГолотуДума про козака Голоту 1937_DVDRip-AVC_KORSAR.mkv
Формат : Matroska
Версия формата : Version 2
Размер файла : 1,50 Гбайт
Продолжительность : 1 ч. 17 м.
Общий поток : 2758 Кбит/сек
Дата кодирования : UTC 2018-12-27 01:17:21
Программа кодирования : mkvmerge v5.8.0 ('No Sleep / Pillow') built on Sep 2 2012 15:37:04
Библиотека кодирования : libebml v1.2.3 + libmatroska v1.3.0

Видео
Идентификатор : 1
Формат : AVC
Формат/Информация : Advanced Video Codec
Профиль формата : [email protected]
Настройки формата : CABAC / 15 Ref Frames
Параметр CABAC формата : Да
Параметр RefFrames формата : 15 кадров
Идентификатор кодека : V_MPEG4/ISO/AVC
Продолжительность : 1 ч. 17 м.
Битрейт : 2500 Кбит/сек
Ширина : 696 пикселей
Высота : 570 пикселей
Соотношение сторон : 4:3
Режим частоты кадров : Постоянный
Частота кадров : 25,000 кадров/сек
Цветовое пространство : YUV
Субдискретизация насыщенности : 4:2:0
Битовая глубина : 8 бит
Тип развёртки : Прогрессивная
Бит/(Пиксели*Кадры) : 0.252
Размер потока : 1,33 Гбайт (89%)
Библиотека кодирования : x264 core 152 r2851kMod ba24899
Настройки программы : cabac=1 / ref=15 / deblock=1:-1:1 / analyse=0x3:0x133 / me=umh / subme=11 / psy=1 / fade_compensate=0.00 / psy_rd=1.05:0.10 / mixed_ref=1 / me_range=48 / chroma_me=1 / trellis=2 / 8x8dct=1 / cqm=0 / deadzone=21,11 / fast_pskip=0 / chroma_qp_offset=-3 / threads=12 / lookahead_threads=3 / sliced_threads=0 / nr=0 / decimate=0 / interlaced=0 / bluray_compat=0 / constrained_intra=0 / bframes=10 / b_pyramid=2 / b_adapt=2 / b_bias=0 / direct=3 / weightb=1 / open_gop=0 / weightp=2 / keyint=250 / keyint_min=25 / scenecut=40 / intra_refresh=0 / rc_lookahead=40 / rc=2pass / mbtree=0 / bitrate=2500 / ratetol=1.0 / qcomp=0.60 / qpmin=0 / qpmax=39 / qpstep=4 / cplxblur=20.0 / qblur=0.5 / vbv_maxrate=50000 / vbv_bufsize=62500 / nal_hrd=none / filler=0 / ip_ratio=1.25 / pb_ratio=1.30 / aq=1:1.00
Язык : English
Default : Да
Forced : Нет
Цветовой диапазон : Limited
Основные цвета : BT.601 PAL
Характеристики трансфера : BT.470 System B, BT.470 System G
Коэффициенты матрицы : BT.470 System B, BT.470 System G

Аудио
Идентификатор : 2
Формат : AC-3
Формат/Информация : Audio Coding 3
Параметр Endianness формата : Big
Идентификатор кодека : A_AC3
Продолжительность : 1 ч. 17 м.
Вид битрейта : Постоянный
Битрейт : 256 Кбит/сек
Каналы : 2 канала
Расположение каналов : Front: L R
Частота : 48,0 КГц
Частота кадров : 31,250 кадров/сек (1536 SPF)
Битовая глубина : 16 бит
Метод сжатия : С потерями
Размер потока : 142 Мбайт (9%)
Язык : Russian
Default : Да
Forced : Нет
Скриншоты Дума про козака Голоту

 

Вложения

  • 17,1 KB Просмотры: 0
    Личеров 0
    Сидеров 0
    Файлов 2
    Объем 3,2 GB

Привет!

Мы группа людей которые решили помочь другим в решении их проблем, а так же пользователям с поиском самых свежих и качественных инфопродуктов. За 4 с небольшим месяца мы создали этот форум на который заходят ежедневно тысячи человек и посещаемость постоянно растёт. Мы создали панель лицензирования для защиты PHP скриптов от воровства и SEO панель для мониторинга наших сайтов и выбора верной стратегии их развития. Мы надеемся что то что мы создали пригодится Вам и возможно Вы поможете нам развиваться и совершенствоваться вместе с Вами.

Статистика форума

Темы
326.025
Сообщения
344.502
Пользователи
23.002
Новый пользователь
Vitaloy208621

Приложения форума для iOS и Android


У ркн там нет власти ;)
Гостевуха
Помощь Пользователи
    sntk Chat Bot: sntk покинул(а) комнату.