Благочестивая Марта (1980) DVDRip-AVC от KORSAR

Если Вы не хотите скачивать, Вы всегда можете посмотреть онлайн, просто нажмите кнопку ниже :

Открыть плеер

Torrent_Bot

Торрент-Бот
Бот форума
4 Окт 2016
5
1.004
20
#1


Благочестивая Марта




Страна: СССР
Жанр: Музыкальная комедия
Год выпуска: 1980
Продолжительность: 02:15:36
Перевод: Не требуется

Режиссер: Ян Фрид
В ролях: Маргарита Терехова, Эммануил Виторган, Николай Караченцов, Светлана Тома, Владислав Стржельчик, Олег Видов, Павел Кадочников, Екатерина Райкина, Петр Кадочников, Е.Каменская, Л.Прокопенко, Р.Фурман, А.Хазин

Описание: Испания, Мадрид, XVII век. Вполне традиционный средневековый сюжет: тиран - отец пытается выдать красавицу - дочь замуж за богатого старика. Девушка вынуждена объявить, что уходит в монастырь, только бы отложить день свадьбы...
Тем более, что она неожиданно для самой себя влюбляется в очень симпатичного и ещё довольно молодого человека,
которому приходится претвориться тяжело больным для того, чтобы быть рядом со своей возлюбленной Мартой...



Кодек: х264
Качество: DVDRip-AVC
Видео: MPEG-4 AVC, 4150 Кбит/с, 712х[email protected], 25 fps,
Аудио: АС3, 6 сh, 448 Кбит/с, АС3, 1 сh, 192 Кбит/с
Субтитры: Нет
Главы: Есть

Скриншоты Инфо файл
x264 [info]: frame I:1090 Avg QP:17.91 size: 86054
x264 [info]: frame P:45683 Avg QP:20.34 size: 43165
x264 [info]: frame B:156651 Avg QP:22.17 size: 13755

Общее
Уникальный идентификатор : 198257046536753889243700536287908018633 (0x9526EB1328AA3231B6D420B29F9339C9)
Полное имя : J:сссрБлагочестивая Марта 1980_DVDRip-AVC_KORSAR.mkv
Формат : Matroska
Версия формата : Version 2
Размер файла : 4,54 Гбайт
Продолжительность : 2 ч. 15 м.
Общий поток : 4791 Кбит/сек
Дата кодирования : UTC 2018-12-26 20:44:26
Программа кодирования : mkvmerge v5.8.0 ('No Sleep / Pillow') built on Sep 2 2012 15:37:04
Библиотека кодирования : libebml v1.2.3 + libmatroska v1.3.0

Видео
Идентификатор : 1
Формат : AVC
Формат/Информация : Advanced Video Codec
Профиль формата : [email protected]
Настройки формата : CABAC / 15 Ref Frames
Параметр CABAC формата : Да
Параметр RefFrames формата : 15 кадров
Идентификатор кодека : V_MPEG4/ISO/AVC
Продолжительность : 2 ч. 15 м.
Битрейт : 4150 Кбит/сек
Ширина : 712 пикселей
Высота : 568 пикселей
Соотношение сторон : 4:3
Соотношение сторон в оригинале : 4:3
Режим частоты кадров : Постоянный
Частота кадров : 25,000 кадров/сек
Цветовое пространство : YUV
Субдискретизация насыщенности : 4:2:0
Битовая глубина : 8 бит
Тип развёртки : Прогрессивная
Бит/(Пиксели*Кадры) : 0.410
Размер потока : 3,84 Гбайт (85%)
Библиотека кодирования : x264 core 152 r2851kMod ba24899
Настройки программы : cabac=1 / ref=15 / deblock=1:-2:-2 / analyse=0x3:0x133 / me=umh / subme=11 / psy=1 / fade_compensate=0.00 / psy_rd=1.05:0.10 / mixed_ref=1 / me_range=48 / chroma_me=1 / trellis=2 / 8x8dct=1 / cqm=0 / deadzone=21,11 / fast_pskip=0 / chroma_qp_offset=-3 / threads=12 / lookahead_threads=3 / sliced_threads=0 / nr=0 / decimate=0 / interlaced=0 / bluray_compat=0 / constrained_intra=0 / bframes=10 / b_pyramid=2 / b_adapt=2 / b_bias=0 / direct=3 / weightb=1 / open_gop=0 / weightp=2 / keyint=250 / keyint_min=25 / scenecut=40 / intra_refresh=0 / rc_lookahead=40 / rc=2pass / mbtree=0 / bitrate=4150 / ratetol=1.0 / qcomp=0.60 / qpmin=0 / qpmax=39 / qpstep=4 / cplxblur=20.0 / qblur=0.5 / vbv_maxrate=50000 / vbv_bufsize=62500 / nal_hrd=none / filler=0 / ip_ratio=1.25 / pb_ratio=1.30 / aq=1:1.00
Язык : English
Default : Да
Forced : Нет
Цветовой диапазон : Limited
Основные цвета : BT.601 PAL
Характеристики трансфера : BT.470 System B, BT.470 System G
Коэффициенты матрицы : BT.470 System B, BT.470 System G

Аудио #1
Идентификатор : 2
Формат : AC-3
Формат/Информация : Audio Coding 3
Параметр Endianness формата : Big
Идентификатор кодека : A_AC3
Продолжительность : 2 ч. 15 м.
Вид битрейта : Постоянный
Битрейт : 448 Кбит/сек
Каналы : 6 каналов
Расположение каналов : Front: L C R, Side: L R, LFE
Частота : 48,0 КГц
Частота кадров : 31,250 кадров/сек (1536 SPF)
Битовая глубина : 16 бит
Метод сжатия : С потерями
Задержка видео : 394 мс.
Размер потока : 435 Мбайт (9%)
Язык : Russian
Default : Да
Forced : Нет

Аудио #2
Идентификатор : 3
Формат : AC-3
Формат/Информация : Audio Coding 3
Параметр Endianness формата : Big
Идентификатор кодека : A_AC3
Продолжительность : 2 ч. 15 м.
Вид битрейта : Постоянный
Битрейт : 192 Кбит/сек
Каналы : 1 канал
Расположение каналов : Front: C
Частота : 48,0 КГц
Частота кадров : 31,250 кадров/сек (1536 SPF)
Битовая глубина : 16 бит
Метод сжатия : С потерями
Задержка видео : 396 мс.
Размер потока : 186 Мбайт (4%)
Язык : Russian
Default : Нет
Forced : Нет

Меню
00:00:00.000 : en:Chapter 1
00:05:12.680 : en:Chapter 2
00:10:47.760 : en:Chapter 3
00:20:13.720 : en:Chapter 4
00:24:58.160 : en:Chapter 5
00:31:27.480 : en:Chapter 6
00:37:04.080 : en:Chapter 7
00:46:20.120 : en:Chapter 8
00:55:33.240 : en:Chapter 9
01:03:42.160 : en:Chapter 10
01:17:35.600 : en:Chapter 11
01:23:56.240 : en:Chapter 12
01:30:30.320 : en:Chapter 13
01:41:31.080 : en:Chapter 14
01:47:04.840 : en:Chapter 15
01:53:28.080 : en:Chapter 16
01:58:51.000 : en:Chapter 17
02:07:42.120 : en:Chapter 18
02:15:35.840 : en:Chapter 19

 

Вложения

  • 23,6 KB Просмотры: 0
    Личеров 0
    Сидеров 0
    Файлов 1
    Объем 4,5 GB

Привет!

Мы группа людей которые решили помочь другим в решении их проблем, а так же пользователям с поиском самых свежих и качественных инфопродуктов. За 4 с небольшим месяца мы создали этот форум на который заходят ежедневно тысячи человек и посещаемость постоянно растёт. Мы создали панель лицензирования для защиты PHP скриптов от воровства и SEO панель для мониторинга наших сайтов и выбора верной стратегии их развития. Мы надеемся что то что мы создали пригодится Вам и возможно Вы поможете нам развиваться и совершенствоваться вместе с Вами.

Статистика форума

Темы
324.891
Сообщения
343.165
Пользователи
22.790
Новый пользователь
elegia

Онлайн статистика

Пользователей онлайн
383
Гостей онлайн
4.011
Всего посетителей
4.394

Приложения форума для iOS и Android


У ркн там нет власти ;)
Гостевуха
Помощь Пользователи
    Captain @ Captain: Батя в здание