Будьте моим мужем (1981) HDTVRip 720p от KORSAR

Если Вы не хотите скачивать, Вы всегда можете посмотреть онлайн, просто нажмите кнопку ниже :

Открыть плеер

Torrent_Bot

Торрент-Бот
Бот форума
4 Окт 2016
5
1.004
20
#1


Название: Будьте моим мужем
Год выхода: 1981
Жанр:драма, мелодрама, комедия
Режиссер: Алла Сурикова
В ролях: Елена Проклова, Андрей Миронов, Филипп Адамович, Нина Русланова, Наталья Крачковская, Владимир Басов, Антон Табаков, Баадур Цуладзе, Олег Анофриев, Николай Гриньк

Описание: Детский врач отправляется в отпуск на Юг, где его услуги в качестве мужа понадобились молодой и очень красивой женщине. Дело в том, что одной с ребенком ей никто сдавать квартиру в курортном городе не хотел. Нравы тогда такие были.Вот ей и понадобился человек, который мог бы разыграть из себя ее мужа для поселения в частном секторе. Ну а как у них сложатся отношения и в других областях, зритель предпочтет узнать сам. Легкая музыкальная комедия с прекрасными актерами.

Выпущено: СССР
Продолжительность: 01:22:08



Релиз от:

Файл
Кодек: х264
Качество: HDTVRip 720p
Видео: MPEG-4 AVC, 988x720, 25 fps, 4444 Кбит/с
Звук: AC3, 6 ch, 448 Кбит/с, AC3, 1 ch, 224 Кбит/с
Субтитры: Русские

Скриншоты
Инфо файл
x264 [info]: frame I:630 Avg QP:18.44 size:114972
x264 [info]: frame P:34155 Avg QP:20.32 size: 50125
x264 [info]: frame B:88434 Avg QP:22.18 size: 10785
=================================================================================
Общее
Уникальный идентификатор : 204737011263249412509024348901504533983 (0x9A06EA009912C683AFFE9227352D45DF)
Полное имя : D:Будьте моим мужем_1981-HDTVRip 720p.mkv
Формат : Matroska
Версия формата : Version 2
Размер файла : 2,94 Гбайт
Продолжительность : 1 ч. 22 м.
Общий поток : 5119 Кбит/сек
Дата кодирования : UTC 2016-12-26 12:08:42
Программа кодирования : mkvmerge v5.8.0 ('No Sleep / Pillow') built on Sep 2 2012 15:37:04
Библиотека кодирования : libebml v1.2.3 + libmatroska v1.3.0

Видео
Идентификатор : 1
Формат : AVC
Формат/Информация : Advanced Video Codec
Профиль формата : [email protected]
Параметр CABAC формата : Да
Параметр ReFrames формата : 11 кадров
Идентификатор кодека : V_MPEG4/ISO/AVC
Продолжительность : 1 ч. 22 м.
Битрейт : 4444 Кбит/сек
Ширина : 988 пикселей
Высота : 720 пикселей
Соотношение сторон : 1,372
Режим частоты кадров : Постоянный
Частота кадров : 25,000 кадров/сек
Цветовое пространство : YUV
Субдискретизация насыщенности : 4:2:0
Битовая глубина : 8 бит
Тип развёртки : Прогрессивная
Бит/(Пиксели*Кадры) : 0.250
Размер потока : 2,49 Гбайт (85%)
Заголовок : korsar.tv
Библиотека кодирования : x264 core 148 r2721kMod 72d53ab
Настройки программы : cabac=1 / ref=11 / deblock=1:-2:-2 / analyse=0x3:0x133 / me=umh / subme=10 / psy=1 / fade_compensate=0.00 / psy_rd=0.75:0.10 / mixed_ref=1 / me_range=32 / chroma_me=1 / trellis=2 / 8x8dct=1 / cqm=0 / deadzone=21,11 / fast_pskip=0 / chroma_qp_offset=-3 / threads=12 / lookahead_threads=2 / sliced_threads=0 / nr=0 / decimate=0 / interlaced=0 / bluray_compat=0 / constrained_intra=0 / fgo=0 / bframes=8 / b_pyramid=2 / b_adapt=2 / b_bias=0 / direct=3 / weightb=1 / open_gop=0 / weightp=2 / keyint=250 / keyint_min=25 / scenecut=40 / intra_refresh=0 / rc=2pass / mbtree=0 / bitrate=4444 / ratetol=1.0 / qcomp=0.63 / qpmin=0 / qpmax=39 / qpstep=4 / cplxblur=20.0 / qblur=0.5 / ip_ratio=1.20 / pb_ratio=1.30 / aq=2:0.70
Язык : English
Default : Да
Forced : Нет
Цветовой диапазон : Limited
Основные цвета : BT.709
Характеристики трансфера : BT.709
Коэффициенты матрицы : BT.709

Аудио #1
Идентификатор : 2
Формат : AC-3
Формат/Информация : Audio Coding 3
Расширение режима : CM (complete main)
Параметр Endianness формата : Big
Идентификатор кодека : A_AC3
Продолжительность : 1 ч. 22 м.
Вид битрейта : Постоянный
Битрейт : 448 Кбит/сек
Каналы : 6 каналов
Расположение каналов : Front: L C R, Side: L R, LFE
Частота : 48,0 КГц
Частота кадров : 31,250 кадров/сек (1536 spf)
Битовая глубина : 16 бит
Метод сжатия : С потерями
Размер потока : 263 Мбайт (9%)
Язык : Russian
Default : Да
Forced : Нет

Аудио #2
Идентификатор : 3
Формат : AC-3
Формат/Информация : Audio Coding 3
Расширение режима : CM (complete main)
Параметр Endianness формата : Big
Идентификатор кодека : A_AC3
Продолжительность : 1 ч. 22 м.
Вид битрейта : Постоянный
Битрейт : 224 Кбит/сек
Каналы : 1 канал
Расположение каналов : Front: C
Частота : 48,0 КГц
Частота кадров : 31,250 кадров/сек (1536 spf)
Битовая глубина : 16 бит
Метод сжатия : С потерями
Размер потока : 132 Мбайт (4%)
Язык : Russian
Default : Нет
Forced : Нет

Текст
Идентификатор : 4
Формат : UTF-8
Идентификатор кодека : S_TEXT/UTF8
Идентификатор кодека/Информация : UTF-8 Plain Text
Язык : Russian
Default : Да
Forced : Нет

Меню
00:00:00.000 : en:Chapter 1
00:04:00.000 : en:Chapter 2
00:14:25.920 : en:Chapter 3
00:23:13.440 : en:Chapter 4
00:33:51.840 : en:Chapter 5
00:41:00.000 : en:Chapter 6
00:45:16.320 : en:Chapter 7
00:46:29.280 : en:Chapter 8
00:51:25.440 : en:Chapter 9
00:54:50.400 : en:Chapter 10
00:58:21.600 : en:Chapter 11
01:05:44.160 : en:Chapter 12
01:13:05.760 : en:Chapter 13
01:15:09.120 : en:Chapter 14
01:20:07.680 : en:Chapter 15
 

Вложения

  • 15,6 KB Просмотры: 0
    Личеров 0
    Сидеров 0
    Файлов 1
    Объем 2,9 GB
  • 15,6 KB Просмотры: 0

Привет!

Мы группа людей которые решили помочь другим в решении их проблем, а так же пользователям с поиском самых свежих и качественных инфопродуктов. За 4 с небольшим месяца мы создали этот форум на который заходят ежедневно тысячи человек и посещаемость постоянно растёт. Мы создали панель лицензирования для защиты PHP скриптов от воровства и SEO панель для мониторинга наших сайтов и выбора верной стратегии их развития. Мы надеемся что то что мы создали пригодится Вам и возможно Вы поможете нам развиваться и совершенствоваться вместе с Вами.

Статистика форума

Темы
324.891
Сообщения
343.165
Пользователи
22.790
Новый пользователь
elegia

Онлайн статистика

Пользователей онлайн
383
Гостей онлайн
4.014
Всего посетителей
4.397

Приложения форума для iOS и Android


У ркн там нет власти ;)
Гостевуха
Помощь Пользователи
    Captain @ Captain: Батя в здание