Цыгане / Banjaran (1991) WEBRip | L1

Если Вы не хотите скачивать, Вы всегда можете посмотреть онлайн, просто нажмите кнопку ниже :

Открыть плеер

Torrent_Bot

Торрент-Бот
Бот форума
4 Окт 2016
5
1.004
20
#1




Страна: Индия
Жанр:Драма, мелодрама, фэнтези
Год выпуска: 1991
Продолжительность: 02:25:16


Перевод: Одноголосый любительский закадровый
Субтитры: Нет



Режиссер: Хармеш Малхотра / Harmesh Malhotra


В ролях: Риши Капур, Шридеви, Пран, Гульшан Гровер, Раза Мурад, Кулбхушан Кхарбанда, Судхир Пандей, Анджана Мумтаз, Шарат Саксена, Рам Мохан, Мадху Мальхотра, Рену Арья, Раджан Хаксар, Бирбал, Виджу Кхоте




Описание: Кумар (Риши Капур) - молодой художник из богатой семьи - пишет портрет знакомой девушки, но на картине появляется лицо прекрасной незнакомки. Это лицо красавицы Решмы (Шридеви), дочери цыганского барона. При первой же встрече между Кумаром и Решмой вспыхивает страстная любовь. Однако влюбленным предстоит пройти через множество испытаний...









Качество видео: WEBRip (исх. WEBRip 720p)
Формат видео: AVI


Видео:XviD, 688x288, 23,976 fps, 1 301 Kbps
Аудио:48 kHz, MPEG Layer 3, 2 ch, ~128.00 kbps




Риппер, сведение звука: soso4eg









Скриншоты


MI
General
Complete name : P:Tsigane.1991.WEB-DLRip.XviD-soso4eg.avi
Format : AVI
Format/Info : Audio Video Interleave
File size : 1.46 GiB
Duration : 2h 25mn
Overall bit rate : 1 438 Kbps
Movie name : Tsigane.1991.WEB-DLRip.XviD-soso4eg
Director : soso4eg
Writing application : VirtualDubMod 1.5.10.3 | www.virtualdub-fr.org || (build 2550/release)

Video
ID : 0
Format : MPEG-4 Visual
Format profile : Advanced [email protected]
Format settings, BVOP : 1
Format settings, QPel : No
Format settings, GMC : No warppoints
Format settings, Matrix : Default (H.263)
Codec ID : XVID
Codec ID/Hint : XviD
Duration : 2h 25mn
Bit rate : 1 301 Kbps
Width : 688 pixels
Height : 288 pixels
Display aspect ratio : 2.40:1
Frame rate : 23.976 fps
Color space : YUV
Chroma subsampling : 4:2:0
Bit depth : 8 bits
Scan type : Progressive
Compression mode : Lossy
Bits/(Pixel*Frame) : 0.274
Stream size : 1.32 GiB (90%)
Writing library : XviD 1.2.1 (UTC 2008-12-04)

Audio
ID : 1
Format : MPEG Audio
Format version : Version 1
Format profile : Layer 3
Mode : Joint stereo
Mode extension : MS Stereo
Codec ID : 55
Codec ID/Hint : MP3
Duration : 2h 25mn
Bit rate mode : Constant
Bit rate : 128 Kbps
Channel(s) : 2 channels
Sampling rate : 48.0 KHz
Compression mode : Lossy
Stream size : 133 MiB (9%)
Alignment : Aligned on interleaves
Interleave, duration : 42 ms (1.00 video frame)
Interleave, preload duration : 504 ms
 

Вложения

  • 15,5 KB Просмотры: 0
    Личеров 0
    Сидеров 0
    Файлов 1
    Объем 1,5 GB

Похожие темы

Привет!

Мы группа людей которые решили помочь другим в решении их проблем, а так же пользователям с поиском самых свежих и качественных инфопродуктов. За 4 с небольшим месяца мы создали этот форум на который заходят ежедневно тысячи человек и посещаемость постоянно растёт. Мы создали панель лицензирования для защиты PHP скриптов от воровства и SEO панель для мониторинга наших сайтов и выбора верной стратегии их развития. Мы надеемся что то что мы создали пригодится Вам и возможно Вы поможете нам развиваться и совершенствоваться вместе с Вами.

Статистика форума

Темы
324.994
Сообщения
343.389
Пользователи
22.925
Новый пользователь
Alligator007

Приложения форума для iOS и Android


У ркн там нет власти ;)
Гостевуха
Помощь Пользователи
    sntk Chat Bot: sntk покинул(а) комнату.