Доза ужаса / Doses of Horror (2018) WEBRip 720p | L2

Если Вы не хотите скачивать, Вы всегда можете посмотреть онлайн, просто нажмите кнопку ниже :

Открыть плеер

Torrent_Bot

Торрент-Бот
Бот форума
4 Окт 2016
5
1.004
20
#1



Информация о фильме
Название: Доза ужаса
Оригинальное название: Doses of Horror

Год выхода: 2018
Жанр: Ужасы
Режиссер: Гектор Кабель
В ролях: Дэвид Аллер, Кен Абрахам, Роберт Альда
О фильме:
В психиатрической больнице пациентов заставляли смотреть фильмы ужасов для психиатрического исследования. После просмотра все испытуемые сошли с ума. И теперь эти фильмы были найдены.



Страна: США, Horror Dose Productions
Продолжительность: 01:40:46
Перевод: Любительский (двухголосый закадровый) | HiWay Grope

Файл
Кодек: MPEG-4 AVC/x.264
Качество: WEBRip 720p
Видео: 1280x720, 23.976 fps, ~2698 kbps, 0.122 bit/pixel
Звук:
Аудио rus: AC3, 48 kHz, 2 ch, 192 Kbps
Субтитры: отсутствуют

Реклама: присутствует

Семпл

MediaInfo:
General
Unique ID : 102233268131493856510133463259453448994 (0x4CE96947121302E2B15BC2273F81E322)
Complete name : D:Doses.of.Horror.2018.720p.WEBRip.HiWayGropeDoses.of.Horror.2018.720p.WEBRip.HiWayGrope.mkv
Format : Matroska
Format version : Version 4
File size : 2.04 GiB
Duration : 1 h 40 min
Overall bit rate : 2 892 kb/s
Encoded date : UTC 2019-01-04 10:27:50
Writing application : mkvmerge v28.1.0 ('Morning Child') 64-bit
Writing library : libebml v1.3.6 + libmatroska v1.4.9

Video
ID : 1
Format : AVC
Format/Info : Advanced Video Codec
Format profile : [email protected]
Format settings : CABAC / 4 Ref Frames
Format settings, CABAC : Yes
Format settings, RefFrames : 4 frames
Codec ID : V_MPEG4/ISO/AVC
Duration : 1 h 40 min
Bit rate : 2 698 kb/s
Width : 1 280 pixels
Height : 720 pixels
Display aspect ratio : 16:9
Frame rate mode : Constant
Frame rate : 23.976 (24000/1001) FPS
Standard : NTSC
Color space : YUV
Chroma subsampling : 4:2:0
Bit depth : 8 bits
Scan type : Progressive
Bits/(Pixel*Frame) : 0.122
Stream size : 1.90 GiB (93%)
Language : English
Default : Yes
Forced : No
Color range : Limited
Color primaries : BT.709
Transfer characteristics : BT.709
Matrix coefficients : BT.709

Audio
ID : 2
Format : AC-3
Format/Info : Audio Coding 3
Commercial name : Dolby Digital
Codec ID : A_AC3
Duration : 1 h 40 min
Bit rate mode : Constant
Bit rate : 192 kb/s
Channel(s) : 2 channels
Channel layout : L R
Sampling rate : 48.0 kHz
Frame rate : 31.250 FPS (1536 SPF)
Bit depth : 16 bits
Compression mode : Lossy
Stream size : 138 MiB (7%)
Language : Russian
Service kind : Complete Main
Default : Yes
Forced : No
Скриншоты
Релиз от: HiWay Grope
 

Вложения

  • 11,2 KB Просмотры: 0
    Личеров 0
    Сидеров 0
    Файлов 1
    Объем 2 GB

Похожие темы

Привет!

Мы группа людей которые решили помочь другим в решении их проблем, а так же пользователям с поиском самых свежих и качественных инфопродуктов. За 4 с небольшим месяца мы создали этот форум на который заходят ежедневно тысячи человек и посещаемость постоянно растёт. Мы создали панель лицензирования для защиты PHP скриптов от воровства и SEO панель для мониторинга наших сайтов и выбора верной стратегии их развития. Мы надеемся что то что мы создали пригодится Вам и возможно Вы поможете нам развиваться и совершенствоваться вместе с Вами.

Статистика форума

Темы
324.891
Сообщения
343.167
Пользователи
22.790
Новый пользователь
elegia

Онлайн статистика

Пользователей онлайн
359
Гостей онлайн
3.897
Всего посетителей
4.256

Приложения форума для iOS и Android


У ркн там нет власти ;)
Гостевуха
Помощь Пользователи
    Captain @ Captain: Батя в здание