Дубравка (1967) DVDRip-AVC от KORSAR

Если Вы не хотите скачивать, Вы всегда можете посмотреть онлайн, просто нажмите кнопку ниже :

Открыть плеер

Torrent_Bot

Торрент-Бот
Бот форума
4 Окт 2016
5
1.004
20
#1

Год выпуска: 1967
Жанр: Приключения
Продолжительность: 01:15:22
Режиссер: Радомир Василевский
В ролях: Лина Бракните, Ниеле Викирайте, Виталий Фадеев, К.Усатов, Ольга Аникина, Георгий Слабиняк, Сережа Тихонов, Миша Черныш, Алла Витрук, Виктор Семеновский, Рональд Гравис, Нина Вильвовская, Ольга Семенова, Валерий Зубарев, Георгий Милляр, Лев Перфилов

Описание: По мотивам рассказа Радия Погодина. Дубравка - это обычная девочка, с удивлением обнаружившая, что детство кончилось. Она выросла, но детские нотки проскальзывают во всех ее словах и поступках. Дубравка очень категорична и не готова прощать даже малейших слабостей. Но вот приходит первая любовь, и ее мир изменяется.

Релиз от:

Кодек: х264
Качество: DVDRip-AVC
Видео: MPEG-4 AVC, [email protected], 25 fps, 3078 Кбит/с
Звук: AC3, 2 ch, 192 Кбит/с



Инфо файл

  • x264 [info]: frame I:575 Avg QP:18.53 size: 72014
    x264 [info]: frame P:30100 Avg QP:20.19 size: 34599
    x264 [info]: frame B:82374 Avg QP:22.12 size: 8421
    x264 [info]: consecutive B-frames: 2.8% 5.0% 18.0% 34.4% 19.8% 18.8% 1.1% 0.2% 0.0% 0.0%
Общее
Уникальный идентификатор : 175086022653225480072827176831698409737 (0x83B8576525F85517941FEA1E6CF11909)
Полное имя : D:Дубравка_1967-DVDRip-AVC_KORSAR.mkv
Формат : Matroska
Версия формата : Version 2
Размер файла : 1,76 Гбайт
Продолжительность : 1 ч. 15 м.
Общий поток : 3337 Кбит/сек
Дата кодирования : UTC 2018-08-05 13:46:21
Программа кодирования : mkvmerge v5.8.0 ('No Sleep / Pillow') built on Sep 2 2012 15:37:04
Библиотека кодирования : libebml v1.2.3 + libmatroska v1.3.0

Видео
Идентификатор : 1
Формат : AVC
Формат/Информация : Advanced Video Codec
Профиль формата : [email protected]
Параметр CABAC формата : Да
Параметр RefFrames формата : 15 кадров
Идентификатор кодека : V_MPEG4/ISO/AVC
Продолжительность : 1 ч. 15 м.
Битрейт : 3078 Кбит/сек
Ширина : 698 пикселей
Высота : 572 пикселя
Соотношение сторон : 4:3
Соотношение сторон в оригинале : 4:3
Режим частоты кадров : Постоянный
Частота кадров : 25,000 кадров/сек
Цветовое пространство : YUV
Субдискретизация насыщенности : 4:2:0
Битовая глубина : 8 бит
Тип развёртки : Прогрессивная
Бит/(Пиксели*Кадры) : 0.308
Размер потока : 1,62 Гбайт (92%)
Библиотека кодирования : x264 core 152 r2851kMod ba24899
Настройки программы : cabac=1 / ref=15 / deblock=1:-2:-1 / analyse=0x3:0x133 / me=umh / subme=10 / psy=1 / fade_compensate=0.00 / psy_rd=1.05:0.10 / mixed_ref=1 / me_range=32 / chroma_me=1 / trellis=2 / 8x8dct=1 / cqm=0 / deadzone=21,11 / fast_pskip=1 / chroma_qp_offset=-3 / threads=12 / lookahead_threads=2 / sliced_threads=0 / nr=0 / decimate=1 / interlaced=0 / bluray_compat=0 / constrained_intra=0 / bframes=9 / b_pyramid=2 / b_adapt=2 / b_bias=0 / direct=1 / weightb=1 / open_gop=0 / weightp=2 / keyint=250 / keyint_min=25 / scenecut=40 / intra_refresh=0 / rc=crf / mbtree=0 / crf=17.5000 / qcomp=0.63 / qpmin=0 / qpmax=39 / qpstep=4 / ip_ratio=1.40 / pb_ratio=1.30 / aq=1:1.00
Язык : English
Default : Да
Forced : Нет
Цветовой диапазон : Limited
Основные цвета : BT.601 PAL
Характеристики трансфера : BT.470 System B, BT.470 System G
Коэффициенты матрицы : BT.601

Аудио
Идентификатор : 2
Формат : AC-3
Формат/Информация : Audio Coding 3
Параметр Endianness формата : Big
Идентификатор кодека : A_AC3
Продолжительность : 1 ч. 15 м.
Вид битрейта : Постоянный
Битрейт : 192 Кбит/сек
Каналы : 2 канала
Расположение каналов : Front: L R
Частота : 48,0 КГц
Частота кадров : 31,250 кадров/сек (1536 SPF)
Битовая глубина : 16 бит
Метод сжатия : С потерями
Размер потока : 103 Мбайт (6%)
Язык : Russian
Default : Да
Forced : Нет
 

Вложения

  • 18,5 KB Просмотры: 0
    Личеров 0
    Сидеров 0
    Файлов 1
    Объем 1,8 GB

Привет!

Мы группа людей которые решили помочь другим в решении их проблем, а так же пользователям с поиском самых свежих и качественных инфопродуктов. За 4 с небольшим месяца мы создали этот форум на который заходят ежедневно тысячи человек и посещаемость постоянно растёт. Мы создали панель лицензирования для защиты PHP скриптов от воровства и SEO панель для мониторинга наших сайтов и выбора верной стратегии их развития. Мы надеемся что то что мы создали пригодится Вам и возможно Вы поможете нам развиваться и совершенствоваться вместе с Вами.

Статистика форума

Темы
324.990
Сообщения
343.364
Пользователи
22.907
Новый пользователь
5457032

Онлайн статистика

Пользователей онлайн
19
Гостей онлайн
187
Всего посетителей
206

Приложения форума для iOS и Android


У ркн там нет власти ;)
Гостевуха
Помощь Пользователи
    sntk Chat Bot: sntk покинул(а) комнату.