Фагот (2018) WEB-DL 1080p | iTunes

Если Вы не хотите скачивать, Вы всегда можете посмотреть онлайн, просто нажмите кнопку ниже :

Открыть плеер

Torrent_Bot

Торрент-Бот
Бот форума
4 Окт 2016
5
1.004
20
#1



Информация о фильме
Название: Фагот
Год выхода: 2018
Жанр: Комедия
Страна: Россия
Перевод: не требуется
Продолжительность: 01:00:26
Режиссер: Борис Гуц
В ролях: Анастасия Пронина, Юлия Ауг, Ольга Кавалай-Аксенова, Александр Дривень, Анна Даукаева и др.

О фильме: Как расстаться с ревнивой девушкой? А если она еще и редкостная стерва? Максим не знает, ведь он «хочет, чтобы всем было хорошо». Пока мама и старшая сестра сыплют бесполезными советами, Максим придумывает самый абсурдный предлог для разрыва, который приводит к катастрофичным последствиям… Фильм целиком был снят на смартфон iPhone 7 Plus и камеру GoPro. Съемки заняли 4 дня.



Файл
Качество: WEB-DL 1080p
Видео: MPEG-4 AVC, 1920x804, 4563 kbps, 25,000 fps
Звук: русский, AC3, 2.0 ch, 48 kHz, 192 kbps | iTunes
Субтитры: нет

MI
General
Уникальный идентификатор : 233206121510465339654065249446171877982 (0xAF71DD81E29E85F0BBBCDC4DDD35A25E)
Полное имя : F:TorrentFagotWEBDL1080p.mkv
Формат : Matroska
Версия формата : Version 4 / Version 2
Размер файла : 2.01 GiB
Продолжительность : 1 h 0 min
Общий поток : 4 758 kb/s
Дата кодирования : UTC 2019-01-05 11:26:14
Программа кодирования : mkvmerge v9.5.0 ('Quiet Fire') 64bit
Библиотека кодирования : libebml v1.3.4 + libmatroska v1.4.5

Video
Идентификатор : 1
Формат : AVC
Формат/Информация : Advanced Video Codec
Профиль формата : [email protected]
Настройки формата : CABAC / 5 Ref Frames
Параметр CABAC формата : Yes
Параметр RefFrames формата : 5 frames
Идентификатор кодека : V_MPEG4/ISO/AVC
Продолжительность : 1 h 0 min
Битрейт : 4 564 kb/s
Ширина : 1 920 pixels
Высота : 804 pixels
Соотношение сторон : 2.40:1
Режим частоты кадров : Constant
Частота кадров : 25.000 FPS
Цветовое пространство : YUV
Субдискретизация насыщенности : 4:2:0
Битовая глубина : 8 bits
Тип развёртки : Progressive
Бит/(Пиксели*Кадры) : 0.118
Размер потока : 1.93 GiB (96%)
Язык : English
Default : Yes
Forced : No
Цветовой диапазон : Limited
Основные цвета : BT.709
Характеристики трансфера : BT.709
Коэффициенты матрицы : BT.709

Audio
Идентификатор : 2
Формат : AC-3
Формат/Информация : Audio Coding 3
Идентификатор кодека : A_AC3
Продолжительность : 1 h 0 min
Вид битрейта : Constant
Битрейт : 192 kb/s
Каналы : 2 channels
Расположение каналов : Front: L R
Частота : 48.0 kHz
Частота кадров : 31.250 FPS (1536 SPF)
Битовая глубина : 16 bits
Метод сжатия : Lossy
Размер потока : 83.0 MiB (4%)
Язык : Russian
Default : Yes
Forced : No

Menu
00:00:00.000 : en:Глава 1
00:01:24.480 : en:Глава 2
00:07:08.720 : en:Глава 3
00:11:51.520 : en:Глава 4
00:17:40.800 : en:Глава 5
00:24:31.400 : en:Глава 6
00:29:59.840 : en:Глава 7
00:34:02.320 : en:Глава 8
00:39:55.840 : en:Глава 9
00:45:07.880 : en:Глава 10
00:51:58.320 : en:Глава 11
Скриншоты
 

Вложения

  • 11 KB Просмотры: 0
    Личеров 0
    Сидеров 0
    Файлов 1
    Объем 2 GB

Похожие темы

Привет!

Мы группа людей которые решили помочь другим в решении их проблем, а так же пользователям с поиском самых свежих и качественных инфопродуктов. За 4 с небольшим месяца мы создали этот форум на который заходят ежедневно тысячи человек и посещаемость постоянно растёт. Мы создали панель лицензирования для защиты PHP скриптов от воровства и SEO панель для мониторинга наших сайтов и выбора верной стратегии их развития. Мы надеемся что то что мы создали пригодится Вам и возможно Вы поможете нам развиваться и совершенствоваться вместе с Вами.

Статистика форума

Темы
326.133
Сообщения
344.643
Пользователи
23.038
Новый пользователь
thxrqmu

Приложения форума для iOS и Android


У ркн там нет власти ;)
Гостевуха
Помощь Пользователи
    Captain @ Captain: Батя в здание