Фагот (2018) WEB-DLRip от GeneralFilm | iTunes

Если Вы не хотите скачивать, Вы всегда можете посмотреть онлайн, просто нажмите кнопку ниже :

Открыть плеер

Torrent_Bot

Торрент-Бот
Бот форума
4 Окт 2016
5
1.004
20
#1



Информация о фильме
Оригинальное название: Фагот
Год выпуска: 2018
Жанр: Комедия
Выпущено: Россия, «Парадиз»
Режиссер: Борис Гуц
В ролях: Анастасия Пронина, Юлия Ауг, Ольга Кавалай-Аксенова, Александр Дривень, Анна Даукаева и др.

О фильме: Как расстаться с ревнивой девушкой? А если она еще и редкостная стерва? Максим не знает, ведь он «хочет, чтобы всем было хорошо». Пока мама и старшая сестра сыплют бесполезными советами, Максим придумывает самый абсурдный предлог для разрыва, который приводит к катастрофичным последствиям… Фильм целиком был снят на смартфон iPhone 7 Plus и камеру GoPro. Съемки заняли 4 дня.



Качество: WEB-DLRip
Видео: XviD build 73, 720x304 (2.37:1), 25.000 fps, 1518 Kbps (0.277 bit/pixel)
Аудио: 48.0 kHz, AC3, 2/0 ch, 192 kbps
Продолжительность: 01:00:26
Перевод: Не требуется
Cубтитры: нет

Скриншоты
MediaInfo
General
Complete name : D:RazdachiFagot.2018.WEB-DLRip.GeneralFilm.avi
Format : AVI
Format/Info : Audio Video Interleave
File size : 744 MiB
Duration : 1 h 0 min
Overall bit rate : 1 720 kb/s
Writing application : VirtualDubMod 1.5.10.3 | www.virtualdub-fr.org || (build 2550/release)
Writing library : VirtualDubMod build 2550/release

Video
ID : 0
Format : MPEG-4 Visual
Format profile : Advanced [email protected]
Format settings : BVOP1 / Custom Matrix
Format settings, BVOP : 1
Format settings, QPel : No
Format settings, GMC : No warppoints
Format settings, Matrix : Custom
Codec ID : XVID
Codec ID/Hint : XviD
Duration : 1 h 0 min
Bit rate : 1 518 kb/s
Width : 720 pixels
Height : 304 pixels
Display aspect ratio : 2.35:1
Frame rate : 25.000 FPS
Color space : YUV
Chroma subsampling : 4:2:0
Bit depth : 8 bits
Scan type : Progressive
Compression mode : Lossy
Bits/(Pixel*Frame) : 0.277
Stream size : 656 MiB (88%)
Writing library : XviD 73

Audio
ID : 1
Format : AC-3
Format/Info : Audio Coding 3
Commercial name : Dolby Digital
Codec ID : 2000
Duration : 1 h 0 min
Bit rate mode : Constant
Bit rate : 192 kb/s
Channel(s) : 2 channels
Channel layout : L R
Sampling rate : 48.0 kHz
Frame rate : 31.250 FPS (1536 SPF)
Bit depth : 16 bits
Compression mode : Lossy
Stream size : 83.0 MiB (11%)
Alignment : Split accross interleaves
Interleave, duration : 40 ms (1.00 video frame)
Interleave, preload duratio : 500 ms
Service kind : Complete Main
Релиз от:
 

Вложения

  • 15,5 KB Просмотры: 0
    Личеров 0
    Сидеров 0
    Файлов 1
    Объем 743,5 MB

Похожие темы

Привет!

Мы группа людей которые решили помочь другим в решении их проблем, а так же пользователям с поиском самых свежих и качественных инфопродуктов. За 4 с небольшим месяца мы создали этот форум на который заходят ежедневно тысячи человек и посещаемость постоянно растёт. Мы создали панель лицензирования для защиты PHP скриптов от воровства и SEO панель для мониторинга наших сайтов и выбора верной стратегии их развития. Мы надеемся что то что мы создали пригодится Вам и возможно Вы поможете нам развиваться и совершенствоваться вместе с Вами.

Статистика форума

Темы
324.994
Сообщения
343.391
Пользователи
22.931
Новый пользователь
187cult

Приложения форума для iOS и Android


У ркн там нет власти ;)
Гостевуха
Помощь Пользователи
    sntk Chat Bot: sntk покинул(а) комнату.