Фантазм 4: Забвение / Phantasm IV: Oblivion (1998) BDRip-AVC от ExKinoRay | P

Если Вы не хотите скачивать, Вы всегда можете посмотреть онлайн, просто нажмите кнопку ниже :

Открыть плеер

Torrent_Bot

Торрент-Бот
Бот форума
4 Окт 2016
5
1.004
20
#1



Информация о фильме
Название: Фантазм 4: Забвение
Оригинальное название: Phantasm IV: Oblivion
Год выхода: 1998
Жанр: Ужасы, фантастика, фэнтези
Режиссер: Дон Коскарелли
В ролях: А. Майкл Болдуин, Реджи Бэннистер, Билл Торнбери, Хейди Марноут, Боб Айви, Энгус Скримм, Кристофер Л. Стоун, Хлоя Кэй, Сильвия Фламмер, Дэвид Гесстер, Саша Кэссел, Эйдан Кэссел, Эрик Эвари, Энди Джонс, Джордж А. Крэйг

О фильме :
После манипуляций, совершённых Высоким, Майк обретает сверхъестественные способности, но вместе с тем понимает, что дни его сочтены. Через вилку измерений он переносится в прошлое и узнает, что ранее тело Высокого принадлежало ученому-исследователю и попутно гробовщику по имени Джебедайа Морнингсайд. Майк пытается изменить прошлое, чтобы Высокий никогда не появился в их мире. Реджи спешит ему на помощь, надеясь навсегда покончить со злом.



Страна: США
Студия: New Breed Productions Inc.
Продолжительность: 01:30:01
Перевод: Профессиональный (многоголосый, закадровый)

Файл
Формат: MKV
Качество: BDRip-AVC (BDRemux 1080p)
Видео: MPEG-4 AVC, 768x432, - 1082 Кбит/с
Аудио: AAC-HE, 2 ch, - 76 Кбит/с
Субтитры: Русские, английские


MI
Общее
Уникальный идентификатор : 206812368593359410843430572102152141875 (0x9B969D04CA959476A32AD530A084BC33)
Полное имя : D:MOVIESPhantasm IV Oblivion.1998.BDRip-AVC.ExKinoRay.mkv
Формат : Matroska
Версия формата : Version 4 / Version 2
Размер файла : 746 Мбайт
Продолжительность : 1 ч. 30 м.
Общий поток : 1158 Кбит/сек
Дата кодирования : UTC 2019-01-13 04:25:45
Программа кодирования : mkvmerge v15.0.0 ('Duel with the Devil') 64-bit
Библиотека кодирования : libebml v1.3.5 + libmatroska v1.4.5

Видео
Идентификатор : 1
Формат : AVC
Формат/Информация : Advanced Video Codec
Профиль формата : [email protected]
Параметр CABAC формата : Да
Параметр RefFrames формата : 12 кадров
Идентификатор кодека : V_MPEG4/ISO/AVC
Продолжительность : 1 ч. 30 м.
Битрейт : 1082 Кбит/сек
Ширина : 768 пикселей
Высота : 432 пикселя
Соотношение сторон : 16:9
Режим частоты кадров : Постоянный
Частота кадров : 23,976 (24000/1001) кадра/сек
Цветовое пространство : YUV
Субдискретизация насыщенности : 4:2:0
Битовая глубина : 8 бит
Тип развёртки : Прогрессивная
Бит/(Пиксели*Кадры) : 0.136
Размер потока : 696 Мбайт (93%)
Библиотека кодирования : x264 core 152 r2851kMod ba24899
Настройки программы : cabac=1 / ref=12 / deblock=1:-2:-2 / analyse=0x3:0x133 / me=umh / subme=10 / psy=1 / fade_compensate=0.00 / psy_rd=1.00:0.17 / mixed_ref=1 / me_range=32 / chroma_me=1 / trellis=2 / 8x8dct=1 / cqm=0 / deadzone=21,11 / fast_pskip=0 / chroma_qp_offset=-3 / threads=6 / lookahead_threads=1 / sliced_threads=0 / nr=0 / decimate=0 / interlaced=0 / bluray_compat=0 / constrained_intra=0 / bframes=11 / b_pyramid=2 / b_adapt=2 / b_bias=0 / direct=3 / weightb=1 / open_gop=0 / weightp=2 / keyint=240 / keyint_min=23 / scenecut=40 / intra_refresh=0 / rc_lookahead=40 / rc=2pass / mbtree=1 / bitrate=1082 / ratetol=1.0 / qcomp=0.60 / qpmin=0 / qpmax=69 / qpstep=4 / cplxblur=20.0 / qblur=0.5 / ip_ratio=1.40 / aq=3:1.00
Default : Да
Forced : Нет

Аудио
Идентификатор : 2
Формат : AAC
Формат/Информация : Advanced Audio Codec
Профиль формата : HE-AAC / LC
Идентификатор кодека : A_AAC
Продолжительность : 1 ч. 29 м.
Битрейт : 76,0 Кбит/сек
Каналы : 2 канала
Расположение каналов : Front: L R
Частота : 48,0 КГц / 24,0 КГц
Частота кадров : 23,438 кадра/сек (1024 SPF)
Метод сжатия : С потерями
Задержка видео : 31 мс.
Размер потока : 48,9 Мбайт (7%)
Язык : Russian
Default : Да
Forced : Нет

Текст #1
Идентификатор : 3
Формат : UTF-8
Идентификатор кодека : S_TEXT/UTF8
Идентификатор кодека/Информация : UTF-8 Plain Text
Продолжительность : 1 ч. 22 м.
Битрейт : 29 бит/сек
ElementCount : 336
Размер потока : 17,6 Кбайт (0%)
Язык : Russian
Default : Нет
Forced : Нет

Текст #2
Идентификатор : 4
Формат : UTF-8
Идентификатор кодека : S_TEXT/UTF8
Идентификатор кодека/Информация : UTF-8 Plain Text
Продолжительность : 1 ч. 28 м.
Битрейт : 19 бит/сек
ElementCount : 472
Размер потока : 12,6 Кбайт (0%)
Язык : English
Default : Нет
Forced : Нет

Меню
00:00:00.000 : en:00:00:00.000
00:06:59.127 : en:00:06:59.127
00:16:07.842 : en:00:16:07.842
00:23:00.212 : en:00:23:00.212
00:30:01.258 : en:00:30:01.258
00:36:56.047 : en:00:36:56.047
00:44:53.733 : en:00:44:53.733
00:52:16.258 : en:00:52:16.258
00:58:55.198 : en:00:58:55.198
01:06:18.433 : en:01:06:18.433
01:15:04.166 : en:01:15:04.166
01:20:47.926 : en:01:20:47.926
Скриншоты

 

Вложения

  • 15,6 KB Просмотры: 0
    Личеров 0
    Сидеров 0
    Файлов 1
    Объем 745,8 MB

Похожие темы

Привет!

Мы группа людей которые решили помочь другим в решении их проблем, а так же пользователям с поиском самых свежих и качественных инфопродуктов. За 4 с небольшим месяца мы создали этот форум на который заходят ежедневно тысячи человек и посещаемость постоянно растёт. Мы создали панель лицензирования для защиты PHP скриптов от воровства и SEO панель для мониторинга наших сайтов и выбора верной стратегии их развития. Мы надеемся что то что мы создали пригодится Вам и возможно Вы поможете нам развиваться и совершенствоваться вместе с Вами.

Статистика форума

Темы
326.138
Сообщения
344.661
Пользователи
23.048
Новый пользователь
DArkDeomn

Приложения форума для iOS и Android


У ркн там нет власти ;)
Гостевуха
Помощь Пользователи
    Captain @ Captain: Батя в здание