Гоголь. Вий (2018) BDRip 1080p | Лицензия

Если Вы не хотите скачивать, Вы всегда можете посмотреть онлайн, просто нажмите кнопку ниже :

Открыть плеер

Torrent_Bot

Торрент-Бот
Бот форума
4 Окт 2016
5
1.004
20
#1
Информация о фильме
Название: Гоголь. Вий
Год выхода: 2018
Жанр: Детектив, приключения, драма
Страна: Россия
Перевод: Не требуется
Продолжительность: 01:39:13
Режиссер: Егор Баранов
В ролях: Александр Петров, Евгений Стычкин, Таисия Вилкова, Артем Ткаченко, Сергей Бадюк, Ян Цапник, Алексей Вертков, Марта Тимофеева, Юлия Франц, Ксения Разина и др.

О фильме: Писарь из Санкт-Петербурга Николай Гоголь бросает вызов загадочному тёмному Всаднику, который жестоко расправляется с девушками в окрестностях села Диканька. Собрав команду из местного полицейского, пьяницы-доктора, суеверного кузнеца и странствующего философа-экзорциста, Гоголь пытается заманить злодея в ловушку, но на его пути встает самое жуткое порождение нечистой силы — Вий, один взгляд которого способен высосать душу смертного. Неожиданно для себя Гоголь выясняет, что с потусторонними силами его связывают не только таинственные видения.



Файл
Формат: MKV
Качество: BDRip 1080p
Видео: MPEG-4 AVC, 1920x804, 10000 kbps, 24,000 fps
Звук#1: русский, DTS 5.1, 48 kHz, 1509 kbps | Лицензия
Звук#2: русский, AC3 5.1, 48 kHz, 640 kbps | Лицензия
Субтитры: русские, английские

Исходник MI
General
Уникальный идентификатор : 229788006855734243377384368693756869979 (0xACDF8F718DE99304BC8D8302284CBD5B)
Полное имя : F:TorrentGogolViyBDRip1080p.mkv
Формат : Matroska
Версия формата : Version 4 / Version 2
Размер файла : 8.42 GiB
Продолжительность : 1 h 39 min
Общий поток : 12.1 Mb/s
Дата кодирования : UTC 2018-07-28 09:13:49
Программа кодирования : mkvmerge v9.5.0 ('Quiet Fire') 64bit
Библиотека кодирования : libebml v1.3.4 + libmatroska v1.4.5

Video
Идентификатор : 1
Формат : AVC
Формат/Информация : Advanced Video Codec
Профиль формата : [email protected]
Настройки формата : CABAC / 5 Ref Frames
Параметр CABAC формата : Yes
Параметр RefFrames формата : 5 frames
Идентификатор кодека : V_MPEG4/ISO/AVC
Продолжительность : 1 h 39 min
Битрейт : 10 000 kb/s
Ширина : 1 920 pixels
Высота : 804 pixels
Соотношение сторон : 2.40:1
Режим частоты кадров : Constant
Частота кадров : 24.000 FPS
Цветовое пространство : YUV
Субдискретизация насыщенности : 4:2:0
Битовая глубина : 8 bits
Тип развёртки : Progressive
Бит/(Пиксели*Кадры) : 0.270
Размер потока : 6.93 GiB (82%)
Библиотека кодирования : x264 core 155 r2901M 7d0ff22
Настройки программы : cabac=1 / ref=5 / deblock=1:-3:-3 / analyse=0x3:0x113 / me=umh / subme=11 / psy=1 / psy_rd=1.00:0.00 / mixed_ref=1 / me_range=48 / chroma_me=1 / trellis=2 / 8x8dct=1 / cqm=0 / deadzone=21,11 / fast_pskip=0 / chroma_qp_offset=-2 / threads=9 / lookahead_threads=2 / sliced_threads=0 / nr=0 / decimate=0 / interlaced=0 / bluray_compat=0 / constrained_intra=0 / bframes=10 / b_pyramid=2 / b_adapt=2 / b_bias=0 / direct=3 / weightb=1 / open_gop=0 / weightp=2 / keyint=240 / keyint_min=24 / scenecut=40 / intra_refresh=0 / rc_lookahead=120 / rc=2pass / mbtree=0 / bitrate=10000 / ratetol=1.0 / qcomp=0.70 / qpmin=0 / qpmax=69 / qpstep=4 / cplxblur=20.0 / qblur=0.5 / vbv_maxrate=50000 / vbv_bufsize=62500 / nal_hrd=none / filler=0 / ip_ratio=1.40 / pb_ratio=1.30 / aq=3:0.80
Default : Yes
Forced : No
Цветовой диапазон : Limited
Основные цвета : BT.709
Характеристики трансфера : BT.709
Коэффициенты матрицы : BT.709

Audio #1
Идентификатор : 2
Формат : DTS
Формат/Информация : Digital Theater Systems
Идентификатор кодека : A_DTS
Продолжительность : 1 h 39 min
Вид битрейта : Constant
Битрейт : 1 509 kb/s
Каналы : 6 channels
Расположение каналов : Front: L C R, Side: L R, LFE
Частота : 48.0 kHz
Частота кадров : 93.750 FPS (512 SPF)
Битовая глубина : 24 bits
Метод сжатия : Lossy
Размер потока : 1.05 GiB (12%)
Язык : Russian
Default : Yes
Forced : No

Audio #2
Идентификатор : 3
Формат : AC-3
Формат/Информация : Audio Coding 3
Идентификатор кодека : A_AC3
Продолжительность : 1 h 39 min
Вид битрейта : Constant
Битрейт : 640 kb/s
Каналы : 6 channels
Расположение каналов : Front: L C R, Side: L R, LFE
Частота : 48.0 kHz
Частота кадров : 31.250 FPS (1536 SPF)
Битовая глубина : 16 bits
Метод сжатия : Lossy
Размер потока : 454 MiB (5%)
Язык : Russian
Default : No
Forced : No

Text #1
Идентификатор : 4
Формат : UTF-8
Идентификатор кодека : S_TEXT/UTF8
Идентификатор кодека/Информация : UTF-8 Plain Text
Продолжительность : 1 h 35 min
Битрейт : 70 b/s
ElementCount : 951
Размер потока : 49.5 KiB (0%)
Язык : Russian
Default : No
Forced : No

Text #2
Идентификатор : 5
Формат : UTF-8
Идентификатор кодека : S_TEXT/UTF8
Идентификатор кодека/Информация : UTF-8 Plain Text
Продолжительность : 1 h 35 min
Битрейт : 40 b/s
ElementCount : 951
Размер потока : 28.1 KiB (0%)
Язык : English
Default : No
Forced : No

Menu
00:00:00.000 : en:Chapter 1
00:00:30.041 : en:Chapter 2
00:12:28.250 : en:Chapter 3
00:25:02.416 : en:Chapter 4
00:35:45.250 : en:Chapter 5
00:49:36.458 : en:Chapter 6
01:00:24.041 : en:Chapter 7
01:14:40.166 : en:Chapter 8
01:27:46.000 : en:Chapter 9
Скриншоты
 

Вложения

  • 22 KB Просмотры: 0
    Личеров 0
    Сидеров 0
    Файлов 1
    Объем 8,4 GB

Похожие темы

Привет!

Мы группа людей которые решили помочь другим в решении их проблем, а так же пользователям с поиском самых свежих и качественных инфопродуктов. За 4 с небольшим месяца мы создали этот форум на который заходят ежедневно тысячи человек и посещаемость постоянно растёт. Мы создали панель лицензирования для защиты PHP скриптов от воровства и SEO панель для мониторинга наших сайтов и выбора верной стратегии их развития. Мы надеемся что то что мы создали пригодится Вам и возможно Вы поможете нам развиваться и совершенствоваться вместе с Вами.

Статистика форума

Темы
324.884
Сообщения
343.128
Пользователи
22.739
Новый пользователь
Vova241

Онлайн статистика

Пользователей онлайн
366
Гостей онлайн
3.615
Всего посетителей
3.981

Приложения форума для iOS и Android


У ркн там нет власти ;)
Гостевуха
Помощь Пользователи
    sntk Chat Bot: sntk присоединился(лась) к комнате.