Гоголь. Вий (2018) WEB-DLRip-AVC от Rustorka | iTunes

Если Вы не хотите скачивать, Вы всегда можете посмотреть онлайн, просто нажмите кнопку ниже :

Открыть плеер

Torrent_Bot

Торрент-Бот
Бот форума
4 Окт 2016
5
1.004
20
#1
Информация о фильме
Название: Гоголь. Вий
Год выхода: 2018
Жанр:детектив, приключения, драма
Режиссер:Егор Баранов
В ролях:Александр Петров(Николай Гоголь), Олег Меньшиков(Яков Гуро, сыщик), Евгений Стычкин(Бинх, полицейский), Таисия Вилкова(Лиза), Артем Ткаченко(граф Данишевский), Екатерина Бурлакова(монахиня), Сергей Бадюк(Вакула, кузнец), Ян Цапник(Бомгарт, доктор), Алексей Вертков(Хома Брут, мастер восточных единоборств и философ), Марта Тимофеева(Василина), Юлия Франц, Ксения Разина(Ульяна)

О фильме: Писарь из Санкт-Петербурга Николай Гоголь бросает вызов загадочному тёмному Всаднику, который жестоко расправляется с девушками в окрестностях села Диканька. Собрав команду из местного полицейского, пьяницы-доктора, суеверного кузнеца и странствующего философа-экзорциста, Гоголь пытается заманить злодея в ловушку, но на его пути встает самое жуткое порождение нечистой силы - Вий, один взгляд которого способен высосать душу смертного. Неожиданно для себя Гоголь выясняет, что с потусторонними силами его связывают не только таинственные видения.




Страна: Россия
Продолжительность: 01:39:03
Перевод: Не требуется [iTunes]

Файл
Формат: MKV
Качество: WEB-DLRip-AVC
Видео: MPEG-4 AVC, 1040x436 (2.40:1), 24.000 fps, 2900 kbps, 0,266 bpp
Аудио: Русский / AC3 / 5.1 / 48 kHz / 384 kbps / 16 bit
Субтитры: Нет

Релиз от:Автор релиза:



Скриншоты

Media Info
General
Unique ID : 13185522125864297429709136113152020358 (0x9EB706EB867EDE15E255E959C07CF86)
Complete name : E:Gogol.Viy.2018.O.WEB-DLRip-AVC.and77200.mkv
Format : Matroska
Format version : Version 4 / Version 2
File size : 2.27 GiB
Duration : 1h 39mn
Overall bit rate : 3 284 Kbps
Movie name : Гоголь Вий.1080p.and77200
Encoded date : UTC 2018-05-23 13:57:38
Writing application : mkvmerge v20.0.0 ('I Am The Sun') 64-bit
Writing library : libebml v1.3.5 + libmatroska v1.4.8

Video
ID : 1
Format : AVC
Format/Info : Advanced Video Codec
Format profile : [email protected]
Format settings, CABAC : Yes
Format settings, ReFrames : 9 frames
Codec ID : V_MPEG4/ISO/AVC
Duration : 1h 39mn
Bit rate : 2 900 Kbps
Width : 1 040 pixels
Height : 436 pixels
Display aspect ratio : 2.40:1
Frame rate : 24.000 fps
Color space : YUV
Chroma subsampling : 4:2:0
Bit depth : 8 bits
Scan type : Progressive
Bits/(Pixel*Frame) : 0.266
Stream size : 1.96 GiB (86%)
Writing library : x264 core 155 r2901M 7d0ff22
Encoding settings : cabac=1 / ref=9 / deblock=1:-1:-1 / analyse=0x3:0x133 / me=umh / subme=11 / psy=1 / psy_rd=1.05:0.15 / mixed_ref=1 / me_range=32 / chroma_me=1 / trellis=2 / 8x8dct=1 / cqm=0 / deadzone=21,11 / fast_pskip=0 / chroma_qp_offset=-3 / threads=2 / lookahead_threads=1 / sliced_threads=0 / nr=0 / decimate=1 / interlaced=0 / bluray_compat=0 / constrained_intra=0 / bframes=6 / b_pyramid=2 / b_adapt=2 / b_bias=0 / direct=3 / weightb=1 / open_gop=0 / weightp=2 / keyint=240 / keyint_min=24 / scenecut=40 / intra_refresh=0 / rc_lookahead=60 / rc=2pass / mbtree=1 / bitrate=2900 / ratetol=1.0 / qcomp=0.70 / qpmin=3 / qpmax=69 / qpstep=9 / cplxblur=20.0 / qblur=0.5 / ip_ratio=1.40 / aq=2:1.00
Language : Russian
Default : Yes
Forced : No
DURATION : 01:39:03.250000000
NUMBER_OF_FRAMES : 142638
NUMBER_OF_BYTES : 2153035574
_STATISTICS_WRITING_APP : mkvmerge v20.0.0 ('I Am The Sun') 64-bit
_STATISTICS_WRITING_DATE_UTC : 2018-05-23 13:57:38
_STATISTICS_TAGS : BPS DURATION NUMBER_OF_FRAMES NUMBER_OF_BYTES
Color primaries : BT.709-5, BT.1361, IEC 61966-2-4, SMPTE RP177
Transfer characteristics : BT.709-5, BT.1361
Matrix coefficients : BT.709-5, BT.1361, IEC 61966-2-4 709, SMPTE RP177

Audio
ID : 2
Format : AC-3
Format/Info : Audio Coding 3
Mode extension : CM (complete main)
Codec ID : A_AC3
Duration : 1h 39mn
Bit rate mode : Constant
Bit rate : 384 Kbps
Channel(s) : 6 channels
Channel positions : Front: L C R, Side: L R, LFE
Sampling rate : 48.0 KHz
Bit depth : 16 bits
Compression mode : Lossy
Stream size : 272 MiB (12%)
Title : iTunes
Language : Russian
Default : Yes
Forced : Yes
DURATION : 01:39:03.232000000
NUMBER_OF_FRAMES : 185726
NUMBER_OF_BYTES : 285275136
_STATISTICS_WRITING_APP : mkvmerge v20.0.0 ('I Am The Sun') 64-bit
_STATISTICS_WRITING_DATE_UTC : 2018-05-23 13:57:38
_STATISTICS_TAGS : BPS DURATION NUMBER_OF_FRAMES NUMBER_OF_BYTES

Menu
00:00:00.000 : :Глава 1
00:07:29.000 : :Глава 2
00:12:22.790 : :Глава 3
00:20:44.455 : :Глава 4
00:24:45.205 : :Глава 5
00:30:02.620 : :Глава 6
00:35:28.369 : :Глава 7
00:41:36.952 : :Глава 8
00:47:22.660 : :Глава 9
00:52:11.243 : :Глава 10
00:58:36.493 : :Глава 11
01:05:09.993 : :Глава 12
01:10:35.076 : :Глава 13
01:15:23.908 : :Глава 14
01:21:01.408 : :Глава 15
01:27:35.283 : :Глава 16
 

Вложения

  • 91,8 KB Просмотры: 0
    Личеров 0
    Сидеров 0
    Файлов 1
    Объем 2,3 GB

Похожие темы

Привет!

Мы группа людей которые решили помочь другим в решении их проблем, а так же пользователям с поиском самых свежих и качественных инфопродуктов. За 4 с небольшим месяца мы создали этот форум на который заходят ежедневно тысячи человек и посещаемость постоянно растёт. Мы создали панель лицензирования для защиты PHP скриптов от воровства и SEO панель для мониторинга наших сайтов и выбора верной стратегии их развития. Мы надеемся что то что мы создали пригодится Вам и возможно Вы поможете нам развиваться и совершенствоваться вместе с Вами.

Статистика форума

Темы
324.994
Сообщения
343.390
Пользователи
22.930
Новый пользователь
Zilberschucher

Приложения форума для iOS и Android


У ркн там нет власти ;)
Гостевуха
Помощь Пользователи
    sntk Chat Bot: sntk покинул(а) комнату.