Город мастеров (1965) DVDRip-AVC от KORSAR

Если Вы не хотите скачивать, Вы всегда можете посмотреть онлайн, просто нажмите кнопку ниже :

Открыть плеер

Torrent_Bot

Торрент-Бот
Бот форума
4 Окт 2016
5
1.004
20
#1
Информация о фильме
Название: Город мастеров
Год выпуска: 1965
Жанр:Сказка, приключения, семейный, история
Режиссер: Владимир Бычков
В ролях: Георгий Лапето, Марианна Вертинская, Лев Лемке, Елизавета Уварова, Савелий Крамаров, Павел Шпрингфельд, Роман Филиппов, Василий Бычков, Зиновий Гердт, Игорь Ясулович, Леонид Каневский, Игорь Комаров, Владимир Козлов, Олег Каравайчук, Владимир Кремена, Роберт Мирский, Карп Мукасьян, Миколас Орбакас, Георгий Тейх, Николай Харитонов, Юрий Харченко, Виталий Щенников, Станислав Щукин, Андрей Юренев

О фильме: Фильм снят в жанре детской киносказки по мотивам пьесы Тамары Габбе. Действие происходит в средневековом городе. Иноземные захватчики под предводительством злого герцога де Маликорна напали на вольный Город Мастеров и поработили его, установив жестокие порядки. Лишь горстке защитников города удалось сбежать из-под власти герцога в близлежащие места. Свободолюбивому горбуну-метельщику по имени Караколь, тайно влюбленному в прекрасную леди Веронику, предсказано освободить город и жениться на любимой.



Выпущено: СССР, Беларусьфильм
Продолжительность: 01:19:17
Перевод: Не требуется

Файл
Кодек: х264
Качество: DVDRip-AVC
Видео: MPEG-4 AVC, [email protected], 25.000 fps, 2500 Кбит/сек
Аудио 1: AC3, 6 ch, 448 Кбит/сек
Аудио 2: AC3, 2 ch, 224 Кбит/сек
Субтитры: Нет
Навигация по главам: Есть

Релиз от:


Скриншоты
MediaInfo
Общее
Уникальный идентификатор : 243986073600107363560832419677180423951 (0xB78E022E1AA0E73ABD0B186C5D026F0F)
Полное имя : Город.мастеров.1965.DVDRip-AVC.KORSAR.mkv
Формат : Matroska
Версия формата : Version 2
Размер файла : 1,76 Гбайт
Продолжительность : 1 ч. 19 м.
Общий поток : 3176 Кбит/сек
Дата кодирования : UTC 2016-08-19 12:02:14
Программа кодирования : mkvmerge v3.4.0 ('Rapunzel') сборка от May 15 2010 09:38:20
Библиотека кодирования : libebml v0.8.0 + libmatroska v0.9.0

Видео
Идентификатор : 1
Формат : AVC
Формат/Информация : Advanced Video Codec
Профиль формата : [email protected]
Параметр CABAC формата : Да
Параметр ReFrames формата : 14 кадров
Идентификатор кодека : V_MPEG4/ISO/AVC
Продолжительность : 1 ч. 19 м.
Битрейт : 2500 Кбит/сек
Ширина : 696 пикселей
Высота : 466 пикселей
Соотношение сторон : 4:3
Режим частоты кадров : Постоянный
Частота кадров : 25,000 кадров/сек
Цветовое пространство : YUV
Субдискретизация насыщенности : 4:2:0
Битовая глубина : 8 бит
Тип развёртки : Прогрессивная
Бит/(Пиксели*Кадры) : 0.308
Размер потока : 1,35 Гбайт (77%)
Заголовок : Город.мастеров.1965.DVDRip-AVC.KORSAR
Библиотека кодирования : x264 core 148 r2638 7599210
Настройки программы : cabac=1 / ref=14 / deblock=1:-2:-2 / analyse=0x3:0x133 / me=tesa / subme=10 / psy=1 / psy_rd=1.05:0.15 / mixed_ref=1 / me_range=48 / chroma_me=1 / trellis=2 / 8x8dct=1 / cqm=0 / deadzone=21,11 / fast_pskip=0 / chroma_qp_offset=-3 / threads=6 / lookahead_threads=1 / sliced_threads=0 / nr=0 / decimate=0 / interlaced=0 / bluray_compat=0 / constrained_intra=0 / bframes=16 / b_pyramid=2 / b_adapt=2 / b_bias=0 / direct=3 / weightb=1 / open_gop=0 / weightp=2 / keyint=250 / keyint_min=25 / scenecut=40 / intra_refresh=0 / rc_lookahead=40 / rc=2pass / mbtree=0 / bitrate=2500 / ratetol=1.0 / qcomp=0.60 / qpmin=0 / qpmax=43 / qpstep=4 / cplxblur=20.0 / qblur=0.5 / vbv_maxrate=50000 / vbv_bufsize=62500 / nal_hrd=none / filler=0 / ip_ratio=1.40 / pb_ratio=1.30 / aq=1:1.00
Язык : English
Default : Нет
Forced : Нет

Аудио #1
Идентификатор : 2
Формат : AC-3
Формат/Информация : Audio Coding 3
Расширение режима : CM (complete main)
Параметр Endianness формата : Big
Идентификатор кодека : A_AC3
Продолжительность : 1 ч. 19 м.
Вид битрейта : Постоянный
Битрейт : 448 Кбит/сек
Каналы : 6 каналов
Расположение каналов : Front: L C R, Side: L R, LFE
Частота : 48,0 КГц
Частота кадров : 31,250 кадров/сек (1536 spf)
Битовая глубина : 16 бит
Метод сжатия : С потерями
Размер потока : 254 Мбайт (14%)
Default : Да
Forced : Нет

Аудио #2
Идентификатор : 3
Формат : AC-3
Формат/Информация : Audio Coding 3
Расширение режима : CM (complete main)
Параметр Endianness формата : Big
Идентификатор кодека : A_AC3
Продолжительность : 1 ч. 19 м.
Вид битрейта : Постоянный
Битрейт : 224 Кбит/сек
Каналы : 2 канала
Расположение каналов : Front: L R
Частота : 48,0 КГц
Частота кадров : 31,250 кадров/сек (1536 spf)
Битовая глубина : 16 бит
Метод сжатия : С потерями
Размер потока : 127 Мбайт (7%)
Default : Нет
Forced : Нет

Меню
00:00:00.000 : en:Chapter 1
00:00:04.404 : en:Chapter 2
00:07:18.438 : en:Chapter 3
00:12:30.950 : en:Chapter 4
00:16:36.195 : en:Chapter 5
00:22:05.324 : en:Chapter 6
00:28:33.011 : en:Chapter 7
00:34:47.485 : en:Chapter 8
00:40:42.640 : en:Chapter 9
00:44:33.070 : en:Chapter 10
00:49:43.380 : en:Chapter 11
00:54:35.372 : en:Chapter 12
01:00:53.650 : en:Chapter 13
01:07:34.050 : en:Chapter 14
01:11:04.260 : en:Chapter 15
01:14:42.478 : en:Chapter 16
01:18:04.780 : en:Chapter 17
 

Вложения

  • 18,6 KB Просмотры: 0
    Личеров 0
    Сидеров 0
    Файлов 1
    Объем 1,8 GB

Привет!

Мы группа людей которые решили помочь другим в решении их проблем, а так же пользователям с поиском самых свежих и качественных инфопродуктов. За 4 с небольшим месяца мы создали этот форум на который заходят ежедневно тысячи человек и посещаемость постоянно растёт. Мы создали панель лицензирования для защиты PHP скриптов от воровства и SEO панель для мониторинга наших сайтов и выбора верной стратегии их развития. Мы надеемся что то что мы создали пригодится Вам и возможно Вы поможете нам развиваться и совершенствоваться вместе с Вами.

Статистика форума

Темы
325.991
Сообщения
344.440
Пользователи
22.966
Новый пользователь
chernofff

Приложения форума для iOS и Android


У ркн там нет власти ;)
Гостевуха
Помощь Пользователи
    sntk Chat Bot: sntk покинул(а) комнату.