Грецкий орешек (2018) WEB-DL 1080p | iTunes

Если Вы не хотите скачивать, Вы всегда можете посмотреть онлайн, просто нажмите кнопку ниже :

Открыть плеер

Torrent_Bot

Торрент-Бот
Бот форума
4 Окт 2016
5
1.004
20
#1



Грецкий орешек

Страна: Россия
Производство: Синемафор
Год выпуска: 2018
Жанр: комедия, приключения
Продолжительность: 01:29:33

Режиссер: Стас Иванов
В ролях: Кирилл Каганович, Антон Васильев, Александр Робак, Полина Толстун, Михаил Пшеничный, Максим Лагашкин, Геннадий Пачис, Мария Болонкина

Описание: Кажется, что у Артура всё хорошо. Он молод, остроумен, ведёт свое шоу на модном радио, живёт с красавицей, на которой собирается жениться. Но! Его избранница вынесла ему мозг. И внезапная страсть к поиску себя подталкивает молодого человека сбежать в Грецию! Там он быстро находит друзей. Вместе они вытворяют такое, что даже местные мафиози не могут пройти мимо. Целая вереница событий и случайностей, опасные и неожиданные моменты поворачивают отпуск совсем в другое русло… Яркая, авантюрная комедия, настоящее путешествие в страну Олимпийского огня и богически красивых дочерей главного греческого мафиози!



Перевод: оригинал (не требуется) | iTunes
Субтитры: нет


Качество: WEB-DL 1080p
Формат: МКV
Видео кодек: AVC
Аудио кодек: АС3
Видео: 1920x1080 (16:9), 24.000 fps, MPEG-4 AVC ~5 000 kbps avg
Аудио: 48.0 kHz, AC3 Dolby Digital, 3/2 (L,C,R,l,r) + LFE ch, ~384 kbps

Дата премьеры (РФ): 8 ноября 2018, «RFG Distribution»



Media Info
General
Unique ID : 240209242669373249574264484226413363907 (0xB4B69E09D5770985A2285E47E4E802C3)
Complete name : GrecKiy.OreX.2O18.1080p.mkv
Format : Matroska
Format version : Version 2
File size : 3.27 GiB
Duration : 1 h 29 min
Overall bit rate : 5 227 kb/s
Encoded date : UTC 2019-01-08 22:24:05
Writing application : mkvmerge v8.3.0 ('Over the Horizon') 64bit
Writing library : libebml v1.3.1 + libmatroska v1.4.2

Video
ID : 1
Format : AVC
Format/Info : Advanced Video Codec
Format profile : [email protected]
Format settings, CABAC : Yes
Format settings, RefFrames : 4 frames
Codec ID : V_MPEG4/ISO/AVC
Duration : 1 h 29 min
Bit rate : 5 000 kb/s
Width : 1 920 pixels
Height : 1 080 pixels
Display aspect ratio : 16:9
Frame rate mode : Constant
Frame rate : 24.000 FPS
Color space : YUV
Chroma subsampling : 4:2:0
Bit depth : 8 bits
Scan type : Progressive
Bits/(Pixel*Frame) : 0.100
Stream size : 3.03 GiB (93%)
Writing library : x264 core 148 r2721 72d53ab
Encoding settings : cabac=1 / ref=4 / deblock=1:0:0 / analyse=0x3:0x133 / me=umh / subme=10 / psy=1 / psy_rd=1.00:0.00 / mixed_ref=1 / me_range=24 / chroma_me=1 / trellis=2 / 8x8dct=1 / cqm=0 / deadzone=21,11 / fast_pskip=1 / chroma_qp_offset=-2 / threads=34 / lookahead_threads=5 / sliced_threads=0 / nr=0 / decimate=1 / interlaced=0 / bluray_compat=0 / constrained_intra=0 / bframes=8 / b_pyramid=2 / b_adapt=2 / b_bias=0 / direct=3 / weightb=1 / open_gop=0 / weightp=2 / keyint=96 / keyint_min=48 / scenecut=40 / intra_refresh=0 / rc_lookahead=60 / rc=2pass / mbtree=1 / bitrate=5000 / ratetol=1.0 / qcomp=0.60 / qpmin=0 / qpmax=69 / qpstep=4 / cplxblur=20.0 / qblur=0.5 / vbv_maxrate=5000 / vbv_bufsize=5000 / nal_hrd=none / filler=0 / ip_ratio=1.40 / aq=1:1.00
Default : Yes
Forced : No

Audio
ID : 2
Format : AC-3
Format/Info : Audio Coding 3
Format settings, Endianness : Big
Codec ID : A_AC3
Duration : 1 h 29 min
Bit rate mode : Constant
Bit rate : 384 kb/s
Channel(s) : 6 channels
Channel positions : Front: L C R, Side: L R, LFE
Sampling rate : 48.0 kHz
Frame rate : 31.250 FPS (1536 SPF)
Bit depth : 16 bits
Compression mode : Lossy
Stream size : 246 MiB (7%)
Service kind : Complete Main
Default : Yes
Forced : No
Скриншоты
 

Вложения

  • 17,2 KB Просмотры: 0
    Личеров 0
    Сидеров 0
    Файлов 1
    Объем 3,3 GB

Похожие темы

Привет!

Мы группа людей которые решили помочь другим в решении их проблем, а так же пользователям с поиском самых свежих и качественных инфопродуктов. За 4 с небольшим месяца мы создали этот форум на который заходят ежедневно тысячи человек и посещаемость постоянно растёт. Мы создали панель лицензирования для защиты PHP скриптов от воровства и SEO панель для мониторинга наших сайтов и выбора верной стратегии их развития. Мы надеемся что то что мы создали пригодится Вам и возможно Вы поможете нам развиваться и совершенствоваться вместе с Вами.

Статистика форума

Темы
326.154
Сообщения
344.690
Пользователи
23.092
Новый пользователь
Дмитрий280291

Приложения форума для iOS и Android


У ркн там нет власти ;)
Гостевуха
Помощь Пользователи
    Captain @ Captain: Батя в здание