И это всё о нём [01-06 из 06] (1977) SATRip-AVC от KORSAR

Если Вы не хотите скачивать, Вы всегда можете посмотреть онлайн, просто нажмите кнопку ниже :

Открыть плеер

Torrent_Bot

Торрент-Бот
Бот форума
4 Окт 2016
5
1.004
20
#1






Жанр: детектив, драма, экранизация
Год выпуска: 1977
Выпущено: СССР, ТО Экран
Продолжительность: 01:12:12 + 01:12:01 + 01:04:19 + 01:05:40 + 01:04:54 + 01:05:29
Режиссёр: Игорь Шатров
В ролях: Евгений Леонов, Игорь Костолевский, Леонид Марков, Эммануил Виторган, Лариса Удовиченко, Владимир Носик, Алексей Панькин, Виктор Проскурин, Александр Кавалеров, Любовь Полехина, Людмила Чурсина, Николай Парфёнов, Альберт Филозов, Юрий Каюров, Сергей Курилов, Борис Гусаков, Валентина Талызина, Дмитрий Шутов, Лидия Савченко, Евгений Быкадоров, Елизавета Кузюрина, Юрий Сучков

Описание: Погиб Евгений Столетов, рабочий леспромхоза. Следователь Прохоров в случайность гибели парня не верит. Тем более, что характер Жени многим в леспромхозе не давал покоя. Его открытая борьба с подлогами, ложью стала поводом для сведения счетов...

Релиз от:

Кодек: х264
Качество: SATRip-AVC
Видео: MPEG-4 AVC, [email protected], 25 fps, ~2662 Кбит/с
Звук: AC3, 2 ch, 192 Кбит/с



Инфо файл

  • x264 [info]: frame I:574 Avg QP:18.29 size: 77749
    x264 [info]: frame P:26044 Avg QP:19.91 size: 35368
    x264 [info]: frame B:81683 Avg QP:22.04 size: 6199
    x264 [info]: consecutive B-frames: 2.2% 4.8% 8.5% 29.7% 20.5% 29.7% 3.6% 0.8% 0.2%
Общее
Уникальный идентификатор : 208117691766870641376112257249980974492 (0x9C92026B83FA42FA8FB1735C2414059C)
Полное имя : D:И это всё о нём_1977-SATRip-AVC_KORSARИ это всё о нём-1.mkv
Формат : Matroska
Версия формата : Version 2
Размер файла : 1,47 Гбайт
Продолжительность : 1 ч. 12 м.
Общий поток : 2912 Кбит/сек
Название фильма : И это всё о нём_1977-SATRip-AVC_KORSAR
Дата кодирования : UTC 2018-08-12 00:40:06
Программа кодирования : mkvmerge v5.8.0 ('No Sleep / Pillow') built on Sep 2 2012 15:37:04
Библиотека кодирования : libebml v1.2.3 + libmatroska v1.3.0

Видео
Идентификатор : 1
Формат : AVC
Формат/Информация : Advanced Video Codec
Профиль формата : [email protected]
Параметр CABAC формата : Да
Параметр RefFrames формата : 13 кадров
Идентификатор кодека : V_MPEG4/ISO/AVC
Продолжительность : 1 ч. 12 м.
Битрейт : 2662 Кбит/сек
Ширина : 706 пикселей
Высота : 566 пикселей
Соотношение сторон : 4:3
Соотношение сторон в оригинале : 4:3
Режим частоты кадров : Постоянный
Частота кадров : 25,000 кадров/сек
Цветовое пространство : YUV
Субдискретизация насыщенности : 4:2:0
Битовая глубина : 8 бит
Тип развёртки : Прогрессивная
Бит/(Пиксели*Кадры) : 0.267
Размер потока : 1,34 Гбайт (91%)
Библиотека кодирования : x264 core 152 r2851kMod ba24899
Настройки программы : cabac=1 / ref=13 / deblock=1:-2:-1 / analyse=0x3:0x133 / me=umh / subme=10 / psy=1 / fade_compensate=0.00 / psy_rd=1.05:0.10 / mixed_ref=1 / me_range=32 / chroma_me=1 / trellis=2 / 8x8dct=1 / cqm=0 / deadzone=21,11 / fast_pskip=1 / chroma_qp_offset=-3 / threads=12 / lookahead_threads=2 / sliced_threads=0 / nr=0 / decimate=1 / interlaced=0 / bluray_compat=0 / constrained_intra=0 / bframes=8 / b_pyramid=2 / b_adapt=2 / b_bias=0 / direct=1 / weightb=1 / open_gop=0 / weightp=2 / keyint=250 / keyint_min=25 / scenecut=40 / intra_refresh=0 / rc=crf / mbtree=0 / crf=18.0000 / qcomp=0.63 / qpmin=0 / qpmax=39 / qpstep=4 / ip_ratio=1.40 / pb_ratio=1.30 / aq=1:1.00
Язык : English
Default : Да
Forced : Нет
Цветовой диапазон : Limited
Основные цвета : BT.601 PAL
Характеристики трансфера : BT.470 System B, BT.470 System G
Коэффициенты матрицы : BT.601

Аудио
Идентификатор : 2
Формат : AC-3
Формат/Информация : Audio Coding 3
Параметр Endianness формата : Big
Идентификатор кодека : A_AC3
Продолжительность : 1 ч. 12 м.
Вид битрейта : Постоянный
Битрейт : 192 Кбит/сек
Каналы : 2 канала
Расположение каналов : Front: L R
Частота : 48,0 КГц
Частота кадров : 31,250 кадров/сек (1536 SPF)
Битовая глубина : 16 бит
Метод сжатия : С потерями
Размер потока : 99,2 Мбайт (7%)
Язык : Russian
Default : Да
Forced : Нет
 

Вложения

  • 42,7 KB Просмотры: 0
    Личеров 0
    Сидеров 0
    Файлов 6
    Объем 8,3 GB

Привет!

Мы группа людей которые решили помочь другим в решении их проблем, а так же пользователям с поиском самых свежих и качественных инфопродуктов. За 4 с небольшим месяца мы создали этот форум на который заходят ежедневно тысячи человек и посещаемость постоянно растёт. Мы создали панель лицензирования для защиты PHP скриптов от воровства и SEO панель для мониторинга наших сайтов и выбора верной стратегии их развития. Мы надеемся что то что мы создали пригодится Вам и возможно Вы поможете нам развиваться и совершенствоваться вместе с Вами.

Статистика форума

Темы
324.972
Сообщения
343.312
Пользователи
22.856
Новый пользователь
djsail

Онлайн статистика

Пользователей онлайн
32
Гостей онлайн
218
Всего посетителей
250

Приложения форума для iOS и Android


У ркн там нет власти ;)
Гостевуха
Помощь Пользователи
    sntk Chat Bot: sntk покинул(а) комнату.