Инспектор уголовного розыска (1971) HDTVRip 720p от KORSAR

Если Вы не хотите скачивать, Вы всегда можете посмотреть онлайн, просто нажмите кнопку ниже :

Открыть плеер

Torrent_Bot

Торрент-Бот
Бот форума
4 Окт 2016
5
1.004
20
#1
Год выпуска: 1971
Жанр: детектив
Продолжительность: 01:26:47
Режиссер: Суламифь Цыбульник
В ролях: Юрий Соломин, Евгения Ветлова, Николай Лебедев (II), Борис Зайденберг, Александр Голобородько, Виктор Мирошниченко, Станислав Бородокин, Александр Мовчан, Владимир Заманский, Герман Качин, Лесь Сердюк, Михаил Водяной, Владимир Анисько, Николай Дупак, Юрий Сарычев, Владимир Марченко (II), Лев Перфилов, Галина Кавура

Описание: Дело, которое ведет майор Головко - ограбление сберкассы. Он, конечно, найдет преступников, потому что в арсенале Головко - самые современные средства криминалистики и такие же ловкие, как он сам, коллеги. А по ходу расследования Головко поможет выбрать верный путь оступившемуся человеку - доброму работяге-шоферу Севе Гриневичу.

Релиз от:


Кодек: х264
Качество: HDTVRip 720p
Видео: MPEG-4 AVC, 1280x562, 25 fps, 4178 Кбит/с
Звук: AC3, 2 ch, 192 Кбит/с



Инфо файл

  • x264 [info]: frame I:700 Avg QP:17.17 size: 94451
    x264 [info]: frame P:26757 Avg QP:18.79 size: 46171
    x264 [info]: frame B:102732 Avg QP:19.78 size: 14356
    x264 [info]: consecutive B-frames: 1.0% 1.6% 7.5% 14.3% 22.4% 47.7% 3.8% 0.9% 0.4% 0.2% 0.0%
Общее
Уникальный идентификатор : 217827775670233850051203239648166542679 (0xA3E01A84C28F88D990D8BFDE1A69FD57)
Полное имя : D:Инспектор уголовного розыска_1971-HDTVRip 720p_KORSAR.mkv
Формат : Matroska
Версия формата : Version 2
Размер файла : 2,70 Гбайт
Продолжительность : 1 ч. 26 м.
Общий поток : 4459 Кбит/сек
Название фильма : Инспектор уголовного розыска_1971-HDTVRip 720p_KORSAR
Дата кодирования : UTC 2018-08-09 13:10:30
Программа кодирования : mkvmerge v5.8.0 ('No Sleep / Pillow') built on Sep 2 2012 15:37:04
Библиотека кодирования : libebml v1.2.3 + libmatroska v1.3.0

Видео
Идентификатор : 1
Формат : AVC
Формат/Информация : Advanced Video Codec
Профиль формата : [email protected]
Параметр CABAC формата : Да
Параметр RefFrames формата : 11 кадров
Идентификатор кодека : V_MPEG4/ISO/AVC
Продолжительность : 1 ч. 26 м.
Битрейт : 4178 Кбит/сек
Ширина : 1280 пикселей
Высота : 562 пикселя
Соотношение сторон : 2,25:1
Режим частоты кадров : Постоянный
Частота кадров : 25,000 кадров/сек
Цветовое пространство : YUV
Субдискретизация насыщенности : 4:2:0
Битовая глубина : 8 бит
Тип развёртки : Прогрессивная
Бит/(Пиксели*Кадры) : 0.232
Размер потока : 2,53 Гбайт (94%)
Библиотека кодирования : x264 core 152 r2851kMod ba24899
Настройки программы : cabac=1 / ref=11 / deblock=1:-2:-1 / analyse=0x3:0x113 / me=umh / subme=10 / psy=1 / fade_compensate=0.00 / psy_rd=1.10:0.15 / mixed_ref=1 / me_range=40 / chroma_me=1 / trellis=2 / 8x8dct=1 / cqm=0 / deadzone=21,11 / fast_pskip=1 / chroma_qp_offset=-3 / threads=12 / lookahead_threads=3 / sliced_threads=0 / nr=0 / decimate=1 / interlaced=0 / bluray_compat=0 / constrained_intra=0 / bframes=10 / b_pyramid=2 / b_adapt=2 / b_bias=0 / direct=1 / weightb=1 / open_gop=0 / weightp=2 / keyint=250 / keyint_min=25 / scenecut=40 / intra_refresh=0 / rc=crf / mbtree=0 / crf=18.3000 / qcomp=0.63 / qpmin=0 / qpmax=39 / qpstep=4 / ip_ratio=1.40 / pb_ratio=1.30 / aq=1:1.00
Язык : English
Default : Да
Forced : Нет
Цветовой диапазон : Limited
Основные цвета : BT.709
Характеристики трансфера : BT.709
Коэффициенты матрицы : BT.709

Аудио
Идентификатор : 2
Формат : AC-3
Формат/Информация : Audio Coding 3
Параметр Endianness формата : Big
Идентификатор кодека : A_AC3
Продолжительность : 1 ч. 26 м.
Вид битрейта : Постоянный
Битрейт : 192 Кбит/сек
Каналы : 2 канала
Расположение каналов : Front: L R
Частота : 48,0 КГц
Частота кадров : 31,250 кадров/сек (1536 SPF)
Битовая глубина : 16 бит
Метод сжатия : С потерями
Размер потока : 119 Мбайт (4%)
Язык : Russian
Default : Да
Forced : Нет
 

Вложения

  • 14,5 KB Просмотры: 0
    Личеров 0
    Сидеров 0
    Файлов 1
    Объем 2,7 GB

Привет!

Мы группа людей которые решили помочь другим в решении их проблем, а так же пользователям с поиском самых свежих и качественных инфопродуктов. За 4 с небольшим месяца мы создали этот форум на который заходят ежедневно тысячи человек и посещаемость постоянно растёт. Мы создали панель лицензирования для защиты PHP скриптов от воровства и SEO панель для мониторинга наших сайтов и выбора верной стратегии их развития. Мы надеемся что то что мы создали пригодится Вам и возможно Вы поможете нам развиваться и совершенствоваться вместе с Вами.

Статистика форума

Темы
324.884
Сообщения
343.128
Пользователи
22.739
Новый пользователь
Vova241

Онлайн статистика

Пользователей онлайн
366
Гостей онлайн
3.612
Всего посетителей
3.978

Приложения форума для iOS и Android


У ркн там нет власти ;)
Гостевуха
Помощь Пользователи
    sntk Chat Bot: sntk присоединился(лась) к комнате.