Из породы беглецов / The Fugitive Kind (1960) WEB-DL 1080p от KORSAR | P2, L1

Если Вы не хотите скачивать, Вы всегда можете посмотреть онлайн, просто нажмите кнопку ниже :

Открыть плеер

Torrent_Bot

Торрент-Бот
Бот форума
4 Окт 2016
5
1.004
20
#1



Название: Из породы беглецов / Человек в змеиной коже
Оригинальное название: The Fugitive Kind
Год выпуска: 1960
Выпущено: США, Pennebaker Productions
Жанр:Драма, мелодрама, экранизация
Режиссер: Сидни Люмет
В ролях: Марлон Брандо, Анна Маньяни, Джоэнн Вудворд, Морин Стейплтон, Виктор Джори, Р.Г. Армстронг, Эмори Ричардсон, Мадам Спиви, Сэлли Грейси, Люсиль Бенсон, Джон Барагрей, Бен Яффи, Джо Браун мл., Вирджилия Чю, Фрэнк Боргман, Дженис Марс, Дэбби Линч, Джинн Барр, Нил Харрисон, Херб Вигран

О фильме: По пьесе Теннесси Уильямса «Орфей спускается в ад» («Orpheus Descending»), 1957 год.
Валентайн Ксавьер — бродячий музыкант, решивший сменить образ жизни и покончить со злачными местами и ночными клубами. Волею судьбы он попадает в провинциальный городок, где устраивается на работу продавцом в магазин Джейба Торренса. Между ним и Леди Торренс — женой хозяина магазина возникает симпатия. Но на сердце парня также претендует молодая и взбалмошная Кэрол Кутрер. В складывающихся обстоятельствах ему предстоит сделать нелегкий выбор.

Продолжительность: 02:01:34
Перевод: Профессиональный двухголосый, любительский
Субтитры: Русские, английские
Навигация по главам: Есть

Качество: WEB-DL 1080p
Видео: MPEG-4 AVC, 12,0 Мбит/сек, 1920x1080, 23,976 кадра/сек
Аудио #1: AC3, 2 ch, 192 Кбит/сек | Русский, профессиональный (двухголосый закадровый) Культура
Аудио #2: AC3, 1 ch, 128 Кбит/сек | Русский, любительский (одноголосый закадровый) Urasiko
Аудио #3: AC3, 2 ch, 192 Кбит/сек | Английский, оригинал



Скриншоты
Инфо-файл
Общее
Уникальный идентификатор : 245271692349850096317901117982615027497 (0xB8859C1408FAC127BB69C7D583503F29)
Полное имя : Из.породы.беглецов.1960.WEB-DL.1080p.mkv
Формат : Matroska
Версия формата : Version 2
Размер файла : 10,9 Гбайт
Продолжительность : 2 ч. 1 м.
Режим общего битрейта : Переменный
Общий поток : 12,8 Мбит/сек
Дата кодирования : UTC 2019-01-18 20:17:41
Программа кодирования : mkvmerge v5.8.0 ('No Sleep / Pillow') built on Sep 2 2012 15:37:04
Библиотека кодирования : libebml v1.2.3 + libmatroska v1.3.0

Видео
Идентификатор : 1
Формат : AVC
Формат/Информация : Advanced Video Codec
Профиль формата : [email protected]
Настройки формата : CABAC / 4 Ref Frames
Параметр CABAC формата : Да
Параметр RefFrames формата : 4 кадра
Идентификатор кодека : V_MPEG4/ISO/AVC
Продолжительность : 2 ч. 1 м.
Вид битрейта : Переменный
Битрейт : 12,0 Мбит/сек
Максимальный битрейт : 15,0 Мбит/сек
Ширина : 1800 пикселей
Высота : 1080 пикселей
Соотношение сторон : 5:3
Режим частоты кадров : Постоянный
Частота кадров : 23,976 (24000/1001) кадра/сек
Цветовое пространство : YUV
Субдискретизация насыщенности : 4:2:0
Битовая глубина : 8 бит
Тип развёртки : Прогрессивная
Бит/(Пиксели*Кадры) : 0.258
Размер потока : 10,2 Гбайт (94%)
Язык : English
По умолчанию : Да
Принудительно : Нет
Цветовой диапазон : Limited
Основные цвета : BT.709
Характеристики трансфера : BT.709
Коэффициенты матрицы : BT.709

Аудио #1
Идентификатор : 2
Формат : AC-3
Формат/Информация : Audio Coding 3
Идентификатор кодека : A_AC3
Продолжительность : 2 ч. 1 м.
Вид битрейта : Постоянный
Битрейт : 192 Кбит/сек
Каналы : 2 канала
Расположение каналов : Front: L R
Частота : 48,0 КГц
Частота кадров : 31,250 кадров/сек (1536 SPF)
Битовая глубина : 16 бит
Метод сжатия : С потерями
Размер потока : 167 Мбайт (2%)
Заголовок : DVO | Культура
Язык : Russian
По умолчанию : Да
Принудительно : Нет

Аудио #2
Идентификатор : 3
Формат : AC-3
Формат/Информация : Audio Coding 3
Идентификатор кодека : A_AC3
Продолжительность : 2 ч. 1 м.
Вид битрейта : Постоянный
Битрейт : 128 Кбит/сек
Каналы : 1 канал
Расположение каналов : Front: C
Частота : 48,0 КГц
Частота кадров : 31,250 кадров/сек (1536 SPF)
Битовая глубина : 16 бит
Метод сжатия : С потерями
Размер потока : 111 Мбайт (1%)
Заголовок : VO | Urasiko
Язык : Russian
По умолчанию : Нет
Принудительно : Нет

Аудио #3
Идентификатор : 4
Формат : AC-3
Формат/Информация : Audio Coding 3
Идентификатор кодека : A_AC3
Продолжительность : 2 ч. 1 м.
Вид битрейта : Постоянный
Битрейт : 192 Кбит/сек
Каналы : 1 канал
Расположение каналов : Front: C
Частота : 48,0 КГц
Частота кадров : 31,250 кадров/сек (1536 SPF)
Битовая глубина : 16 бит
Метод сжатия : С потерями
Размер потока : 167 Мбайт (2%)
Заголовок : Original
Язык : English
По умолчанию : Нет
Принудительно : Нет

Текст #1
Идентификатор : 5
Формат : UTF-8
Идентификатор кодека : S_TEXT/UTF8
Идентификатор кодека/Информация : UTF-8 Plain Text
Язык : Russian
По умолчанию : Нет
Принудительно : Нет

Текст #2
Идентификатор : 6
Формат : UTF-8
Идентификатор кодека : S_TEXT/UTF8
Идентификатор кодека/Информация : UTF-8 Plain Text
Язык : English
По умолчанию : Нет
Принудительно : Нет

Текст #3
Идентификатор : 7
Формат : UTF-8
Идентификатор кодека : S_TEXT/UTF8
Идентификатор кодека/Информация : UTF-8 Plain Text
Заголовок : SDH
Язык : English
По умолчанию : Нет
Принудительно : Нет

Меню
00:00:00.000 : :01. Val Xavier
00:07:59.562 : :02. The Kindness of Strangers
00:15:15.998 : :03. Torrance Mercantile Store
00:19:53.067 : :04. "Welcome Home, Jabe"
00:22:51.203 : :05. Carol, Cutrere
00:25:31.822 : :06. Junkin'
00:29:21.468 : :07. Local Bone Orchard
00:36:17.342 : :08. Lady Torrance
00:43:23.309 : :09. "A Peculiar Talker"
00:51:42.057 : :10. "Fly Away, Little Bird"
01:01:02.158 : :11. "The Summer You Quit Me"
01:05:07.112 : :12. Jabe Calls on Val
01:10:20.842 : :13. The Wine Garden
01:14:59.870 : :14. A Room for Val
01:20:11.598 : :15. "I Took Nobody with Me"
01:21:54.993 : :16. "I See Through You, Lady"
01:28:13.788 : :17. Lady's Confectionary
01:37:11.576 : :18. The Sheriff Questions Val
01:41:23.703 : :19. Night of the Opening
01:49:32.775 : :20. Little Fig Tree
01:55:02.771 : :21. Vigilantes
01:57:41.680 : :22. "The Fugitive Kind"
Дополнительная информация
• Исходник видео WEB-DL Amazon.
Сборка:
 

Вложения

  • 55,2 KB Просмотры: 0
    Личеров 0
    Сидеров 0
    Файлов 1
    Объем 10,9 GB

Похожие темы

Привет!

Мы группа людей которые решили помочь другим в решении их проблем, а так же пользователям с поиском самых свежих и качественных инфопродуктов. За 4 с небольшим месяца мы создали этот форум на который заходят ежедневно тысячи человек и посещаемость постоянно растёт. Мы создали панель лицензирования для защиты PHP скриптов от воровства и SEO панель для мониторинга наших сайтов и выбора верной стратегии их развития. Мы надеемся что то что мы создали пригодится Вам и возможно Вы поможете нам развиваться и совершенствоваться вместе с Вами.

Статистика форума

Темы
325.991
Сообщения
344.439
Пользователи
22.966
Новый пользователь
chernofff

Приложения форума для iOS и Android


У ркн там нет власти ;)
Гостевуха
Помощь Пользователи
    sntk Chat Bot: sntk покинул(а) комнату.