Кащей Бессмертный (1944) DVDRip-AVC

Если Вы не хотите скачивать, Вы всегда можете посмотреть онлайн, просто нажмите кнопку ниже :

Открыть плеер

Torrent_Bot

Торрент-Бот
Бот форума
4 Окт 2016
5
1.004
20
#1

Кащей Бессмертный


Год выпуска: 1944
Жанр:Сказка, детский
Страна: СССР
Студия: Союздетфильм, Киностудия им. М. Горького
Продолжительность: 01:03:30
Перевод: Не требуется

Режиссер: Александр Роу
В ролях: Георгий Милляр, Сергей Столяров, Иван Рыжов, Эммануил Геллер, Сергей Филиппов, Александр Ширшов, Пётр Галаджев, О. Юрцев, Галина Григорьева, Л. Кровицкий, Лидия Сухаревская, Лев Потёмкин, Никита Кондратьев, Валентина Сорогожская, Татьяна Барышева, Сергей Троицкий

О фильме: Сказка о русском богатыре - Никите Кожемяке, о его боевом друге - Булате Балагуре, о Марье Моревне - красоте ненаглядной, о злом вороге Кащее Бессмертном....Одна из первых сказочных экранизаций, в оригинальной черно-белой версии, которая сохранилась до наших дней и не потеряла своего очарования. Фильм «Кащей Бессмертный», снятый еще во время Великой Отечественной войны, по праву вошел в золотой фонд советского кинематографа.



Кодек: х264
Качество: DVDRip-AVC
Видео: MPEG-4 AVC, 3690 Кбит/с, 700х[email protected], 25 fps
Аудио: AC3, 1 ch, 112 Кбит/с, AC3, 6 ch, 448 Кбит/с
Cубтитры: Русские
Главы: Есть

Инфо файл
x264 [info]: frame I:656 Avg QP:17.97 size: 79113
x264 [info]: frame P:23841 Avg QP:20.33 size: 39971
x264 [info]: frame B:70753 Avg QP:22.30 size: 10630

Общее
Уникальный идентификатор : 218767149115163653648062145380445236537 (0xA495053489A89E08903547F47C1EAD39)
Полное имя : I:сссрКащей бессметный 1944_DVDRip-AVC .mkv
Формат : Matroska
Версия формата : Version 2
Размер файла : 1,89 Гбайт
Продолжительность : 1 ч. 3 м.
Общий поток : 4251 Кбит/сек
Название фильма : Кащей бессмертный 1944 от mister.hats
Дата кодирования : UTC 2018-08-31 09:45:36
Программа кодирования : mkvmerge v5.8.0 ('No Sleep / Pillow') built on Sep 2 2012 15:37:04
Библиотека кодирования : libebml v1.2.3 + libmatroska v1.3.0

Видео
Идентификатор : 1
Формат : AVC
Формат/Информация : Advanced Video Codec
Профиль формата : [email protected]
Настройки формата : CABAC / 14 Ref Frames
Параметр CABAC формата : Да
Параметр RefFrames формата : 14 кадров
Идентификатор кодека : V_MPEG4/ISO/AVC
Продолжительность : 1 ч. 3 м.
Битрейт : 3690 Кбит/сек
Ширина : 700 пикселей
Высота : 558 пикселей
Соотношение сторон : 4:3
Соотношение сторон в оригинале : 4:3
Режим частоты кадров : Постоянный
Частота кадров : 25,000 кадров/сек
Цветовое пространство : YUV
Субдискретизация насыщенности : 4:2:0
Битовая глубина : 8 бит
Тип развёртки : Прогрессивная
Бит/(Пиксели*Кадры) : 0.378
Размер потока : 1,60 Гбайт (85%)
Библиотека кодирования : x264 core 152 r2851kMod ba24899
Настройки программы : cabac=1 / ref=14 / deblock=1:-2:-2 / analyse=0x3:0x133 / me=umh / subme=11 / psy=1 / fade_compensate=0.00 / psy_rd=0.88:0.00 / mixed_ref=1 / me_range=48 / chroma_me=1 / trellis=2 / 8x8dct=1 / cqm=0 / deadzone=21,11 / fast_pskip=0 / chroma_qp_offset=-2 / threads=12 / lookahead_threads=2 / sliced_threads=0 / nr=0 / decimate=0 / interlaced=0 / bluray_compat=0 / constrained_intra=0 / bframes=8 / b_pyramid=2 / b_adapt=2 / b_bias=0 / direct=3 / weightb=1 / open_gop=0 / weightp=2 / keyint=250 / keyint_min=25 / scenecut=40 / intra_refresh=0 / rc_lookahead=40 / rc=2pass / mbtree=0 / bitrate=3690 / ratetol=1.0 / qcomp=0.60 / qpmin=0 / qpmax=39 / qpstep=4 / cplxblur=20.0 / qblur=0.5 / vbv_maxrate=50000 / vbv_bufsize=62500 / nal_hrd=none / filler=0 / ip_ratio=1.25 / pb_ratio=1.30 / aq=1:0.90
Язык : English
Default : Да
Forced : Нет
Цветовой диапазон : Limited
Основные цвета : BT.601 PAL
Характеристики трансфера : BT.470 System B, BT.470 System G
Коэффициенты матрицы : BT.470 System B, BT.470 System G

Аудио #1
Идентификатор : 2
Формат : AC-3
Формат/Информация : Audio Coding 3
Параметр Endianness формата : Big
Идентификатор кодека : A_AC3
Продолжительность : 1 ч. 3 м.
Вид битрейта : Постоянный
Битрейт : 112 Кбит/сек
Каналы : 1 канал
Расположение каналов : Front: C
Частота : 48,0 КГц
Частота кадров : 31,250 кадров/сек (1536 SPF)
Битовая глубина : 16 бит
Метод сжатия : С потерями
Размер потока : 50,9 Мбайт (3%)
Язык : Russian
Default : Да
Forced : Нет

Аудио #2
Идентификатор : 3
Формат : AC-3
Формат/Информация : Audio Coding 3
Параметр Endianness формата : Big
Идентификатор кодека : A_AC3
Продолжительность : 1 ч. 3 м.
Вид битрейта : Постоянный
Битрейт : 448 Кбит/сек
Каналы : 6 каналов
Расположение каналов : Front: L C R, Side: L R, LFE
Частота : 48,0 КГц
Частота кадров : 31,250 кадров/сек (1536 SPF)
Битовая глубина : 16 бит
Метод сжатия : С потерями
Размер потока : 203 Мбайт (11%)
Язык : Russian
Default : Нет
Forced : Нет

Текст
Идентификатор : 4
Формат : UTF-8
Идентификатор кодека : S_TEXT/UTF8
Идентификатор кодека/Информация : UTF-8 Plain Text
Язык : Russian
Default : Нет
Forced : Нет

Меню
00:00:00.000 : en:Chapter 1
00:09:38.640 : en:Chapter 2
00:21:28.560 : en:Chapter 3
00:28:02.680 : en:Chapter 4
00:39:22.960 : en:Chapter 5
00:56:12.920 : en:Chapter 6
Скриншоты
 

Вложения

  • 19,8 KB Просмотры: 0
    Личеров 0
    Сидеров 0
    Файлов 1
    Объем 1,9 GB

Привет!

Мы группа людей которые решили помочь другим в решении их проблем, а так же пользователям с поиском самых свежих и качественных инфопродуктов. За 4 с небольшим месяца мы создали этот форум на который заходят ежедневно тысячи человек и посещаемость постоянно растёт. Мы создали панель лицензирования для защиты PHP скриптов от воровства и SEO панель для мониторинга наших сайтов и выбора верной стратегии их развития. Мы надеемся что то что мы создали пригодится Вам и возможно Вы поможете нам развиваться и совершенствоваться вместе с Вами.

Статистика форума

Темы
326.025
Сообщения
344.504
Пользователи
23.009
Новый пользователь
Tdhda

Приложения форума для iOS и Android


У ркн там нет власти ;)
Гостевуха
Помощь Пользователи
    sntk Chat Bot: sntk покинул(а) комнату.