Край монстров 2 / Monsterland 2 (2018) HDRip | L2

Если Вы не хотите скачивать, Вы всегда можете посмотреть онлайн, просто нажмите кнопку ниже :

Открыть плеер

Torrent_Bot

Торрент-Бот
Бот форума
4 Окт 2016
5
1.004
20
#1



Информация о фильме
Название: Край монстров 2
Оригинальное название: Monsterland 2

Год выхода: 2018
Жанр: Ужасы
Режиссер: Джонатан Холбрук, Арлен Конопаки
В ролях: Шон Кармайкл, Адарин Хили, Дамиан Маффей, Питер Олдринг, Кристи Рэй
О фильме:
Сборник короткометражек-фильмов ужасов про различных необычных существ разной степени мерзости. Приятного аппетита.



Страна: США
Продолжительность: 01:14:03
Перевод: Любительский (двухголосый закадровый) | HiWay Grope

Файл
Кодек: XviD
Качество: HDRip
Видео: 720x400, 23.976 fps, ~1765 kbps, 0.26 bit/pixel
Звук:
Аудио rus: AC3, 48 kHz, 2 ch, 192 Kbps
Субтитры: отсутствуют

Реклама: присутствует

Семпл

MediaInfo:
General
Complete name : D:Monsterland.2.2018.HDRip.HiWayGropeMonsterland.2.2018.HDRip.HiWayGrope.avi
Format : AVI
Format/Info : Audio Video Interleave
Format profile : OpenDML
File size : 1.02 GiB
Duration : 1 h 14 min
Overall bit rate : 1 965 kb/s
Writing application : Lavf57.71.100

Video
ID : 0
Format : MPEG-4 Visual
Format profile : Advanced [email protected]
Format settings, BVOP : No
Format settings, QPel : No
Format settings, GMC : No warppoints
Format settings, Matrix : Default (H.263)
Codec ID : XVID
Codec ID/Hint : XviD
Duration : 1 h 14 min
Bit rate : 1 758 kb/s
Width : 720 pixels
Height : 400 pixels
Display aspect ratio : 16:9
Frame rate : 23.976 (24000/1001) FPS
Color space : YUV
Chroma subsampling : 4:2:0
Bit depth : 8 bits
Scan type : Progressive
Compression mode : Lossy
Bits/(Pixel*Frame) : 0.255
Stream size : 931 MiB (90%)
Writing library : XviD 67

Audio
ID : 1
Format : AC-3
Format/Info : Audio Coding 3
Commercial name : Dolby Digital
Codec ID : 2000
Duration : 1 h 14 min
Bit rate mode : Constant
Bit rate : 192 kb/s
Channel(s) : 2 channels
Channel layout : L R
Sampling rate : 48.0 kHz
Frame rate : 31.250 FPS (1536 SPF)
Bit depth : 16 bits
Compression mode : Lossy
Stream size : 102 MiB (10%)
Alignment : Aligned on interleaves
Interleave, duration : 32 ms (0.77 video frame)
Service kind : Complete Main
Скриншоты
Релиз от: HiWay Grope
 

Вложения

  • 11,2 KB Просмотры: 0
    Личеров 0
    Сидеров 0
    Файлов 1
    Объем 1 GB

Похожие темы

Привет!

Мы группа людей которые решили помочь другим в решении их проблем, а так же пользователям с поиском самых свежих и качественных инфопродуктов. За 4 с небольшим месяца мы создали этот форум на который заходят ежедневно тысячи человек и посещаемость постоянно растёт. Мы создали панель лицензирования для защиты PHP скриптов от воровства и SEO панель для мониторинга наших сайтов и выбора верной стратегии их развития. Мы надеемся что то что мы создали пригодится Вам и возможно Вы поможете нам развиваться и совершенствоваться вместе с Вами.

Статистика форума

Темы
324.994
Сообщения
343.389
Пользователи
22.925
Новый пользователь
Alligator007

Приложения форума для iOS и Android


У ркн там нет власти ;)
Гостевуха
Помощь Пользователи
    sntk Chat Bot: sntk покинул(а) комнату.