Лицо на мишени (1978) SATRip-AVC от KORSAR

Если Вы не хотите скачивать, Вы всегда можете посмотреть онлайн, просто нажмите кнопку ниже :

Открыть плеер

Torrent_Bot

Торрент-Бот
Бот форума
4 Окт 2016
5
1.004
20
#1



Лицо на мишени
Жанр: детектив
Год выпуска: 1978
Продолжительность: 01:09:54 + 01:05:52
Режиссёр: Альмантас Грикявичюс
В ролях: Повилас Гайдис, Регимантас Адомайтис, Юозас Киселюс, Витаутас Паукште, Антанас Габренас, Арнас Росенас, Лаймонас Норейка, Юрис Стренга, Стяпонас Космаускас, Эдгарас Савицкис, Вальдас Ятаутис, Гедиминас Гирдвайнис, Витаутас Томкус, Нийоле Ожелите

Описание: Телевизионный художественный фильм в двух сериях. Литовская киностудия
Психологический детектив по мотивам новелл Г. К. Честертона. Конец 19-го века. В заброшенном замке собирается тайное масонское общество. Заседание прерывается убийством хозяина замка. Впрочем, выясняется, что убили двойника. Но за этим следует новая череда убийств.



Релиз от:

Кодек: х264
Качество: SATRip-AVC
Видео: MPEG-4 AVC, [email protected], 25 fps, ~2100 Кбит/с
Звук: AC3, 2 ch, 192 Кбит/с



Инфо файл
x264 [info]: frame I:663 Avg QP:16.85 size: 61864
x264 [info]: frame P:25674 Avg QP:18.60 size: 26484
x264 [info]: frame B:78513 Avg QP:20.94 size: 5082
x264 [info]: consecutive B-frames: 2.4% 5.2% 10.1% 29.7% 22.2% 26.0% 3.2% 0.8% 0.3% 0.2% 0.0%
Общее
Уникальный идентификатор : 195565862396699935664237388299506843621 (0x93209D73D9735FACAD000B23D2B07FE5)
Полное имя : D:Лицо на мишени_1978-SATRip-AVC_KORSARЛицо на мишени-1.mkv
Формат : Matroska
Версия формата : Version 2
Размер файла : 1,14 Гбайт
Продолжительность : 1 ч. 9 м.
Общий поток : 2330 Кбит/сек
Название фильма : Лицо на мишени_1978-SATRip-AVC_KORSAR
Дата кодирования : UTC 2018-10-06 12:41:33
Программа кодирования : mkvmerge v5.8.0 ('No Sleep / Pillow') built on Sep 2 2012 15:37:04
Библиотека кодирования : libebml v1.2.3 + libmatroska v1.3.0

Видео
Идентификатор : 1
Формат : AVC
Формат/Информация : Advanced Video Codec
Профиль формата : [email protected]
Параметр CABAC формата : Да
Параметр RefFrames формата : 15 кадров
Идентификатор кодека : V_MPEG4/ISO/AVC
Продолжительность : 1 ч. 9 м.
Битрейт : 2092 Кбит/сек
Ширина : 530 пикселей
Высота : 572 пикселя
Соотношение сторон : 4:3
Соотношение сторон в оригинале : 4:3
Режим частоты кадров : Постоянный
Частота кадров : 25,000 кадров/сек
Цветовое пространство : YUV
Субдискретизация насыщенности : 4:2:0
Битовая глубина : 8 бит
Тип развёртки : Прогрессивная
Бит/(Пиксели*Кадры) : 0.276
Размер потока : 1,02 Гбайт (90%)
Библиотека кодирования : x264 core 152 r2851kMod ba24899
Настройки программы : cabac=1 / ref=15 / deblock=1:-2:-1 / analyse=0x3:0x133 / me=umh / subme=10 / psy=1 / fade_compensate=0.00 / psy_rd=1.05:0.10 / mixed_ref=1 / me_range=40 / chroma_me=1 / trellis=2 / 8x8dct=1 / cqm=0 / deadzone=21,11 / fast_pskip=1 / chroma_qp_offset=-3 / threads=12 / lookahead_threads=3 / sliced_threads=0 / nr=0 / decimate=1 / interlaced=0 / bluray_compat=0 / constrained_intra=0 / bframes=10 / b_pyramid=2 / b_adapt=2 / b_bias=0 / direct=1 / weightb=1 / open_gop=0 / weightp=2 / keyint=250 / keyint_min=25 / scenecut=40 / intra_refresh=0 / rc=crf / mbtree=0 / crf=17.6000 / qcomp=0.63 / qpmin=0 / qpmax=39 / qpstep=4 / ip_ratio=1.40 / pb_ratio=1.30 / aq=1:1.00
Язык : English
Default : Да
Forced : Нет
Цветовой диапазон : Limited
Основные цвета : BT.601 PAL
Характеристики трансфера : BT.470 System B, BT.470 System G
Коэффициенты матрицы : BT.601

Аудио
Идентификатор : 2
Формат : AC-3
Формат/Информация : Audio Coding 3
Параметр Endianness формата : Big
Идентификатор кодека : A_AC3
Продолжительность : 1 ч. 9 м.
Вид битрейта : Постоянный
Битрейт : 192 Кбит/сек
Каналы : 2 канала
Расположение каналов : Front: L R
Частота : 48,0 КГц
Частота кадров : 31,250 кадров/сек (1536 SPF)
Битовая глубина : 16 бит
Метод сжатия : С потерями
Задержка видео : 24 мс.
Размер потока : 96,0 Мбайт (8%)
Язык : Russian
Default : Да
Forced : Нет
 

Вложения

  • 12,7 KB Просмотры: 0
    Личеров 0
    Сидеров 0
    Файлов 2
    Объем 2,3 GB

Привет!

Мы группа людей которые решили помочь другим в решении их проблем, а так же пользователям с поиском самых свежих и качественных инфопродуктов. За 4 с небольшим месяца мы создали этот форум на который заходят ежедневно тысячи человек и посещаемость постоянно растёт. Мы создали панель лицензирования для защиты PHP скриптов от воровства и SEO панель для мониторинга наших сайтов и выбора верной стратегии их развития. Мы надеемся что то что мы создали пригодится Вам и возможно Вы поможете нам развиваться и совершенствоваться вместе с Вами.

Статистика форума

Темы
325.991
Сообщения
344.446
Пользователи
22.973
Новый пользователь
maxansk

Приложения форума для iOS и Android


У ркн там нет власти ;)
Гостевуха
Помощь Пользователи
    sntk Chat Bot: sntk покинул(а) комнату.