Маленькие комедии большого дома (1974) DVDRip-AVC от KORSAR

Если Вы не хотите скачивать, Вы всегда можете посмотреть онлайн, просто нажмите кнопку ниже :

Открыть плеер

Torrent_Bot

Торрент-Бот
Бот форума
4 Окт 2016
5
1.004
20
#1

Информация о фильме
Название: Маленькие комедии большого дома
Год выхода: 1974
Жанр: Драма, мелодрама, комедия, семейный
Режиссер: Валентин Плучек, Андрей Миронов, Александр Ширвиндт
В ролях: Татьяна Пельтцер, Борис Кумаритов, Надежда Каратаева, Виктор Рухманов, Андрей Миронов, Наталья Защипина, Спартак Мишулин, Юрий Авшаров, Нина Архипова, Зоя Зелинская, Даниил Каданов, Александр Диденко, Екатерина Градова, Зиновий Высоковский, Нина Феклисова, Владимир Кулик, Валентина Шарыкина, Лев Тертель, Александр Ширвиндт, Анатолий Папанов, Валентина Токарская, Георгий Тусузов, Владимир Ушаков, Михаил Державин, Федор Димант, Юрий Соковнин, Вадим Завьялов, Галина Степанова, Бронислава Тронова, Наталья Фекленко, Наталья Энке, Вячеслав Гронин, Тамара Мурина

О фильме: Жители нового дома влюбляются, ссорятся и мирятся, работают и отдыхают, танцуют и поют: «Смотровой ордер» — оптимистическая комедия с переездом и вселением. «Грабеж» — психологический ретро детектив со взломом. «Московская серенада» — комедийный мюзикл о любви с песнями и танцами. «Звуковое письмо» — четвертая новелла в исполнении Александра Ширвиндта. «Пой, ласточка, пой…» — жилищно-бытовая оратория для ЖЭКа с фортепьяно.



Страна: СССР
Студия: Театр Сатиры, ТО «Экран»
Продолжительность: 02:34:50

Файл
Кодек: х264
Качество: DVDRip-AVC
Видео: MPEG-4 AVC, [email protected], 25 fps, 1991 Кбит/с
Аудио: Audio Coding 3, 48 kHz, 6 ch, ~384 kbps avg
Аудио: Audio Coding 3, 48 kHz, 2 ch, ~192 kbps avg

Скриншоты
Инфо файл
x264 [info]: frame I:1162 Avg QP:18.57 size: 55725
x264 [info]: frame P:55735 Avg QP:20.38 size: 27977
x264 [info]: frame B:175375 Avg QP:22.27 size: 4267
=======================================================
Общее
Уникальный идентификатор : 220544769298900918511588181972621100439 (0xA5EB60A59D3F089EBDC606850BBA8597)
Полное имя : D:Маленькие комедии большого дома_1974-DVDRip-AVC.mkv
Формат : Matroska
Версия формата : Version 2
Размер файла : 2,90 Гбайт
Продолжительность : 2 ч. 34 м.
Общий поток : 2685 Кбит/сек
Дата кодирования : UTC 2017-04-10 08:24:37
Программа кодирования : mkvmerge v5.8.0 ('No Sleep / Pillow') built on Sep 2 2012 15:37:04
Библиотека кодирования : libebml v1.2.3 + libmatroska v1.3.0

Видео
Идентификатор : 1
Формат : AVC
Формат/Информация : Advanced Video Codec
Профиль формата : [email protected]
Параметр CABAC формата : Да
Параметр ReFrames формата : 14 кадров
Идентификатор кодека : V_MPEG4/ISO/AVC
Продолжительность : 2 ч. 34 м.
Битрейт : 1991 Кбит/сек
Ширина : 696 пикселей
Высота : 574 пикселя
Соотношение сторон : 1,293
Режим частоты кадров : Постоянный
Частота кадров : 25,000 кадров/сек
Цветовое пространство : YUV
Субдискретизация насыщенности : 4:2:0
Битовая глубина : 8 бит
Тип развёртки : Прогрессивная
Бит/(Пиксели*Кадры) : 0.199
Размер потока : 2,15 Гбайт (74%)
Заголовок : korsar.tv
Библиотека кодирования : x264 core 148 r2744kMod b97ae06
Настройки программы : cabac=1 / ref=14 / deblock=1:-1:-1 / analyse=0x3:0x133 / me=umh / subme=10 / psy=1 / fade_compensate=0.00 / psy_rd=1.05:0.10 / mixed_ref=1 / me_range=32 / chroma_me=1 / trellis=2 / 8x8dct=1 / cqm=0 / deadzone=21,11 / fast_pskip=1 / chroma_qp_offset=-3 / threads=12 / lookahead_threads=2 / sliced_threads=0 / nr=0 / decimate=1 / interlaced=0 / bluray_compat=0 / constrained_intra=0 / bframes=9 / b_pyramid=2 / b_adapt=2 / b_bias=0 / direct=1 / weightb=1 / open_gop=0 / weightp=2 / keyint=250 / keyint_min=25 / scenecut=40 / intra_refresh=0 / rc=crf / mbtree=0 / crf=18.3000 / qcomp=0.63 / qpmin=0 / qpmax=39 / qpstep=4 / ip_ratio=1.25 / pb_ratio=1.30 / aq=1:1.00
Язык : English
Default : Да
Forced : Нет
Цветовой диапазон : Limited
Основные цвета : BT.601 PAL
Характеристики трансфера : BT.470 System B, BT.470 System G
Коэффициенты матрицы : BT.601

Аудио #1
Идентификатор : 2
Формат : AC-3
Формат/Информация : Audio Coding 3
Расширение режима : ME (music and effects)
Параметр Endianness формата : Big
Идентификатор кодека : A_AC3
Продолжительность : 2 ч. 34 м.
Вид битрейта : Постоянный
Битрейт : 448 Кбит/сек
Каналы : 6 каналов
Расположение каналов : Front: L C R, Side: L R, LFE
Частота : 48,0 КГц
Частота кадров : 31,250 кадров/сек (1536 spf)
Битовая глубина : 16 бит
Метод сжатия : С потерями
Размер потока : 496 Мбайт (17%)
Язык : Russian
Default : Да
Forced : Нет

Аудио #2
Идентификатор : 3
Формат : AC-3
Формат/Информация : Audio Coding 3
Расширение режима : CM (complete main)
Параметр Endianness формата : Big
Идентификатор кодека : A_AC3
Продолжительность : 2 ч. 34 м.
Вид битрейта : Постоянный
Битрейт : 192 Кбит/сек
Каналы : 2 канала
Расположение каналов : Front: L R
Частота : 48,0 КГц
Частота кадров : 31,250 кадров/сек (1536 spf)
Битовая глубина : 16 бит
Метод сжатия : С потерями
Размер потока : 213 Мбайт (7%)
Язык : Russian
Default : Нет
Forced : Нет

Релиз от:
 

Вложения

  • 15,5 KB Просмотры: 0
    Личеров 0
    Сидеров 0
    Файлов 1
    Объем 2,9 GB

Привет!

Мы группа людей которые решили помочь другим в решении их проблем, а так же пользователям с поиском самых свежих и качественных инфопродуктов. За 4 с небольшим месяца мы создали этот форум на который заходят ежедневно тысячи человек и посещаемость постоянно растёт. Мы создали панель лицензирования для защиты PHP скриптов от воровства и SEO панель для мониторинга наших сайтов и выбора верной стратегии их развития. Мы надеемся что то что мы создали пригодится Вам и возможно Вы поможете нам развиваться и совершенствоваться вместе с Вами.

Статистика форума

Темы
324.884
Сообщения
343.128
Пользователи
22.739
Новый пользователь
Vova241

Онлайн статистика

Пользователей онлайн
366
Гостей онлайн
3.613
Всего посетителей
3.979

Приложения форума для iOS и Android


У ркн там нет власти ;)
Гостевуха
Помощь Пользователи
    sntk Chat Bot: sntk присоединился(лась) к комнате.