Мавзолей / Mausoleum (1983) BDRip 720p | L1

Если Вы не хотите скачивать, Вы всегда можете посмотреть онлайн, просто нажмите кнопку ниже :

Открыть плеер

Torrent_Bot

Торрент-Бот
Бот форума
4 Окт 2016
5
1.004
20
#1



Информация о фильме
Название: Мавзолей
Оригинальное название: Mausoleum
Год выхода: 1983
Жанр: ужасы
Режиссер: Майкл Дуган
В ролях: Марджо Гортнер, Бобби Бреси, Норман Бёртон, Морис Шарбани, ЛаВанда Пейдж, Лаура Хиппе, Шери Манн, Джули Кристи Мюррэй, Чу Чу Малаве, Рон Кэннон

Описание: После смерти родителей Сюзан переезжает жить к тётке. Та внимательно следит за сиротой так как знает, что на девочке лежит родовое проклятие — каждая старшая дочь в семье одержима демоном. Но с Сюзан не происходит ничего необычного пока она не выходит замуж…



Страна: СЩА
Продолжительность: 01:36:58
Перевод: любителський (одноголосый закадровый) DreamWarrior
Субтитры: английские
Оригинальная аудиодорожка: английский

Файл
Качество: BDRip 720p
Видео: MPEG-4 AVC, 7900 kbps, 23.976 fps, 1280x690
Аудио 1: Russian, AC3, 48.0 KHz, 2 ch, 192 kbps
Аудио 2: English, AC3, 48.0 KHz, 1 ch, 224 kbps

Автор релиза: GoldDust

Скриншоты
MediaInfo
General
Unique ID : 217503604761502161517720502614471340550 (0xA3A1ABA8A7E6FC1D39DF187DE8E1F206)
Complete name : Mausoleum.1983.BDRip.720p.mkv
Format : Matroska
Format version : Version 4
File size : 5.64 GiB
Duration : 1 h 36 min
Overall bit rate : 8 320 kb/s
Movie name : Mausoleum 1983
Encoded date : UTC 2019-01-08 08:09:54
Writing application : mkvmerge v25.0.0 ('Prog Noir') 64-bit
Writing library : libebml v1.3.6 + libmatroska v1.4.9

Video
ID : 1
Format : AVC
Format/Info : Advanced Video Codec
Format profile : [email protected]
Format settings : CABAC / 9 Ref Frames
Format settings, CABAC : Yes
Format settings, RefFrames : 9 frames
Codec ID : V_MPEG4/ISO/AVC
Duration : 1 h 36 min
Bit rate : 7 900 kb/s
Width : 1 280 pixels
Height : 690 pixels
Display aspect ratio : 1.85:1
Frame rate mode : Constant
Frame rate : 23.976 (24000/1001) FPS
Color space : YUV
Chroma subsampling : 4:2:0
Bit depth : 8 bits
Scan type : Progressive
Bits/(Pixel*Frame) : 0.373
Stream size : 5.35 GiB (95%)
Title : Mausoleum.1983.BDRip.720p.x264-MM
Writing library : x264 core 157 r2935 545de2f
Encoding settings : cabac=1 / ref=9 / deblock=1:-3:-3 / analyse=0x3:0x133 / me=umh / subme=11 / psy=1 / psy_rd=1.01:0.00 / mixed_ref=1 / me_range=48 / chroma_me=1 / trellis=2 / 8x8dct=1 / cqm=0 / deadzone=21,11 / fast_pskip=0 / chroma_qp_offset=-2 / threads=12 / lookahead_threads=3 / sliced_threads=0 / nr=0 / decimate=0 / interlaced=0 / bluray_compat=0 / constrained_intra=0 / bframes=12 / b_pyramid=2 / b_adapt=2 / b_bias=0 / direct=3 / weightb=1 / open_gop=1 / weightp=2 / keyint=250 / keyint_min=23 / scenecut=40 / intra_refresh=0 / rc_lookahead=60 / rc=2pass / mbtree=0 / bitrate=7900 / ratetol=1.0 / qcomp=0.60 / qpmin=0 / qpmax=69 / qpstep=4 / cplxblur=20.0 / qblur=0.5 / vbv_maxrate=50000 / vbv_bufsize=62500 / nal_hrd=none / filler=0 / ip_ratio=1.40 / pb_ratio=1.30 / aq=1:1.10
Language : English
Default : Yes
Forced : No

Audio #1
ID : 2
Format : AC-3
Format/Info : Audio Coding 3
Commercial name : Dolby Digital
Codec ID : A_AC3
Duration : 1 h 36 min
Bit rate mode : Constant
Bit rate : 192 kb/s
Channel(s) : 2 channels
Channel layout : L R
Sampling rate : 48.0 kHz
Frame rate : 31.250 FPS (1536 SPF)
Bit depth : 16 bits
Compression mode : Lossy
Stream size : 133 MiB (2%)
Title : VO DreamWarrior
Language : Russian
Service kind : Complete Main
Default : Yes
Forced : No

Audio #2
ID : 3
Format : AC-3
Format/Info : Audio Coding 3
Commercial name : Dolby Digital
Codec ID : A_AC3
Duration : 1 h 36 min
Bit rate mode : Constant
Bit rate : 224 kb/s
Channel(s) : 1 channel
Channel layout : C
Sampling rate : 48.0 kHz
Frame rate : 31.250 FPS (1536 SPF)
Bit depth : 16 bits
Compression mode : Lossy
Stream size : 155 MiB (3%)
Title : Original
Language : English
Service kind : Complete Main
Default : No
Forced : No

Text
ID : 4
Format : PGS
Muxing mode : zlib
Codec ID : S_HDMV/PGS
Codec ID/Info : Picture based subtitle format used on BDs/HD-DVDs
Duration : 1 h 36 min
Bit rate : 24.5 kb/s
Count of elements : 1992
Stream size : 16.9 MiB (0%)
Language : English
Default : Yes
Forced : No

Menu
00:00:00.000 : en:Chapter 1
00:20:11.210 : en:Chapter 2
00:39:09.347 : en:Chapter 3
00:58:02.979 : en:Chapter 4
01:16:50.105 : en:Chapter 5
 

Вложения

  • 113,6 KB Просмотры: 0
    Личеров 0
    Сидеров 0
    Файлов 1
    Объем 5,6 GB

Похожие темы

Привет!

Мы группа людей которые решили помочь другим в решении их проблем, а так же пользователям с поиском самых свежих и качественных инфопродуктов. За 4 с небольшим месяца мы создали этот форум на который заходят ежедневно тысячи человек и посещаемость постоянно растёт. Мы создали панель лицензирования для защиты PHP скриптов от воровства и SEO панель для мониторинга наших сайтов и выбора верной стратегии их развития. Мы надеемся что то что мы создали пригодится Вам и возможно Вы поможете нам развиваться и совершенствоваться вместе с Вами.

Статистика форума

Темы
324.891
Сообщения
343.167
Пользователи
22.790
Новый пользователь
elegia

Онлайн статистика

Пользователей онлайн
359
Гостей онлайн
3.900
Всего посетителей
4.259

Приложения форума для iOS и Android


У ркн там нет власти ;)
Гостевуха
Помощь Пользователи
    Captain @ Captain: Батя в здание