Мой нежно любимый детектив (1986) SATRip-AVC от KORSAR

Если Вы не хотите скачивать, Вы всегда можете посмотреть онлайн, просто нажмите кнопку ниже :

Открыть плеер

Torrent_Bot

Торрент-Бот
Бот форума
4 Окт 2016
5
1.004
20
#1
Информация о фильме
Название: Мой нежно любимый детектив
Год выхода: 1986
Жанр:Комедия
Режиссер: Алексей Симонов
В ролях: Екатерина Васильева, Галина Щепетнова, Владимир Белоусов, Александр Вокач, Ольга Волкова, Сергей Гармаш, Валентин Гафт, Зиновий Гердт, Михаил Данилов, Елена Камбурова, Владимир Камоликовв, Александр Кузнецов, Жанри Лолашвили, Сергей Лосев, Вячеслав Невинный, Игорь Овадис, Валентина Талызина, Семен Фурман

О фильме: Героини фильма - две молодые женщины из частного сыскного агентства - мисс Холмс и мисс Ватсон, применяя дедуктивный метод Шерлока Холмса, успешно раскрывают, казалось бы, безнадежно запутанное дело. Это вызывает недовольство британской полиции. Скотлэнд-Ярд разрабатывает коварный план, чтобы избавиться от конкурентов. Однако осуществить его полиции не удается.



Выпущено: СССР
Продолжительность: 01:21:37
Перевод: Не требуется

Файл
Кодек: х264
Качество: SATRip-AVC
Видео: MPEG-4 AVC, [email protected], 25.000 fps, 2200 Кбит/с
Аудио: AC3, 2 ch, 256 Кбит/с
Субтитры: Нет

Релиз от:


Скриншоты
MediaInfo
Общее
Уникальный идентификатор : 186923953760931254747235607251838899498 (0x8CA03E75F100EFBFA38308CFEEE9152A)
Полное имя : Мой нежно любимый детектив.1986.SATRip-AVC.KORSAR.mkv
Формат : Matroska
Версия формата : Version 2
Размер файла : 1,40 Гбайт
Продолжительность : 1 ч. 21 м.
Общий поток : 2458 Кбит/сек
Дата кодирования : UTC 2017-01-04 00:20:37
Программа кодирования : mkvmerge v5.8.0 ('No Sleep / Pillow') built on Sep 2 2012 15:37:04
Библиотека кодирования : libebml v1.2.3 + libmatroska v1.3.0

Видео
Идентификатор : 1
Формат : AVC
Формат/Информация : Advanced Video Codec
Профиль формата : [email protected]
Параметр CABAC формата : Да
Параметр ReFrames формата : 15 кадров
Идентификатор кодека : V_MPEG4/ISO/AVC
Продолжительность : 1 ч. 21 м.
Битрейт : 2200 Кбит/сек
Ширина : 712 пикселей
Высота : 576 пикселей
Соотношение сторон : 4:3
Режим частоты кадров : Постоянный
Частота кадров : 25,000 кадров/сек
Цветовое пространство : YUV
Субдискретизация насыщенности : 4:2:0
Битовая глубина : 8 бит
Тип развёртки : Прогрессивная
Бит/(Пиксели*Кадры) : 0.215
Размер потока : 1,23 Гбайт (88%)
Библиотека кодирования : x264 core 148 r2744kMod b97ae06
Настройки программы : cabac=1 / ref=15 / deblock=1:-2:-2 / analyse=0x3:0x133 / me=umh / subme=10 / psy=1 / fade_compensate=0.00 / psy_rd=1.05:0.10 / mixed_ref=1 / me_range=32 / chroma_me=1 / trellis=2 / 8x8dct=1 / cqm=0 / deadzone=21,11 / fast_pskip=0 / chroma_qp_offset=-3 / threads=12 / lookahead_threads=3 / sliced_threads=0 / nr=0 / decimate=0 / interlaced=0 / bluray_compat=0 / constrained_intra=0 / bframes=10 / b_pyramid=2 / b_adapt=2 / b_bias=0 / direct=3 / weightb=1 / open_gop=0 / weightp=2 / keyint=250 / keyint_min=25 / scenecut=40 / intra_refresh=0 / rc=2pass / mbtree=0 / bitrate=2200 / ratetol=1.0 / qcomp=0.63 / qpmin=0 / qpmax=39 / qpstep=4 / cplxblur=20.0 / qblur=0.5 / ip_ratio=1.20 / pb_ratio=1.30 / aq=2:1.00
Язык : English
Default : Да
Forced : Нет
Цветовой диапазон : Limited
Основные цвета : BT.601 PAL
Характеристики трансфера : BT.470 System B, BT.470 System G
Коэффициенты матрицы : BT.601

Аудио
Идентификатор : 2
Формат : AC-3
Формат/Информация : Audio Coding 3
Расширение режима : CM (complete main)
Параметр Endianness формата : Big
Идентификатор кодека : A_AC3
Продолжительность : 1 ч. 21 м.
Вид битрейта : Постоянный
Битрейт : 256 Кбит/сек
Каналы : 2 канала
Расположение каналов : Front: L R
Частота : 48,0 КГц
Частота кадров : 31,250 кадров/сек (1536 spf)
Битовая глубина : 16 бит
Метод сжатия : С потерями
Задержка видео : 1 мс.
Размер потока : 149 Мбайт (10%)
Язык : Russian
Default : Да
Forced : Нет
 

Вложения

  • 15 KB Просмотры: 0
    Личеров 0
    Сидеров 0
    Файлов 1
    Объем 1,4 GB

Привет!

Мы группа людей которые решили помочь другим в решении их проблем, а так же пользователям с поиском самых свежих и качественных инфопродуктов. За 4 с небольшим месяца мы создали этот форум на который заходят ежедневно тысячи человек и посещаемость постоянно растёт. Мы создали панель лицензирования для защиты PHP скриптов от воровства и SEO панель для мониторинга наших сайтов и выбора верной стратегии их развития. Мы надеемся что то что мы создали пригодится Вам и возможно Вы поможете нам развиваться и совершенствоваться вместе с Вами.

Статистика форума

Темы
325.991
Сообщения
344.439
Пользователи
22.966
Новый пользователь
chernofff

Приложения форума для iOS и Android


У ркн там нет власти ;)
Гостевуха
Помощь Пользователи
    sntk Chat Bot: sntk покинул(а) комнату.