Морозко (1964) HDTVRip 720p от KORSAR

Если Вы не хотите скачивать, Вы всегда можете посмотреть онлайн, просто нажмите кнопку ниже :

Открыть плеер

Torrent_Bot

Торрент-Бот
Бот форума
4 Окт 2016
5
1.004
20
#1


Морозко

Страна: СССР
Жанр: Сказка, комедия, семейный
Год выпуска: 1964
Продолжительность: 01:18:50
Перевод: Не требуется

Режиссер: Александр Роу
В ролях: Александр Хвыля, Наталья Седых, Эдуард Изотов, Инна Чурикова, Павел Павленко, Вера Алтайская, Георгий Милляр,
Галина Борисова, Анатолий Кубацкий, Валентин Брылеев, Татьяна Пельтцер, Татьяна Барышева, Варвара Попова, Зинаида Воркуль,
Анастасия Зуева, Маргарита Корабельникова, Юрий Чекулаев, Клавдия Козлёнкова, Вера Петрова

Описание: Жила-была хорошая добрая девушка Настенька. Злая мачеха заставляла ее работать, не давая продыху.
Однажды она решила избавиться от падчерицы и отправила ту замерзать в зимний лес. В этих же краях жил паренек Иван.
Он полюбил Настеньку, да вот только был он большим хвастуном, потому лесной колдун и превратил его в медведя.
И Настеньке, и Ивану пришлось пройти через много испытаний, прежде чем соединить свои судьбы. И помог им в этом добрый волшебник — дедушка Морозко…



Кодек: х264
Качество: HDTVRip 720p
Видео: MPEG-4 AVC, 7923 Кбит/с, 984x718, 25 fps,
Аудио: АС3, 6 сh, 448 Кбит/с
Субтитры: Русские, английские
Главы: Есть



Инфо файл
x264 [info]: frame I:817 Avg QP:17.49 size:210219
x264 [info]: frame P:42947 Avg QP:19.46 size: 66356
x264 [info]: frame B:74488 Avg QP:20.72 size: 22326

Общее
Уникальный идентификатор : 248502154314260854746321639518518783071 (0xBAF3C6266D714D81869BF31D26322C5F)
Полное имя : J:сссрМорозко 1964_HDTVRip 720p_KORSAR.mkv
Формат : Matroska
Версия формата : Version 2
Размер файла : 4,61 Гбайт
Продолжительность : 1 ч. 18 м.
Общий поток : 8373 Кбит/сек
Название фильма : Морозко от mister.hats
Дата кодирования : UTC 2018-12-29 01:04:15
Программа кодирования : mkvmerge v5.8.0 ('No Sleep / Pillow') built on Sep 2 2012 15:37:04
Библиотека кодирования : libebml v1.2.3 + libmatroska v1.3.0

Видео
Идентификатор : 1
Формат : AVC
Формат/Информация : Advanced Video Codec
Профиль формата : [email protected]
Настройки формата : CABAC / 11 Ref Frames
Параметр CABAC формата : Да
Параметр RefFrames формата : 11 кадров
Идентификатор кодека : V_MPEG4/ISO/AVC
Продолжительность : 1 ч. 18 м.
Битрейт : 7923 Кбит/сек
Ширина : 984 пикселя
Высота : 718 пикселей
Соотношение сторон : 1,370
Режим частоты кадров : Постоянный
Частота кадров : 25,000 кадров/сек
Цветовое пространство : YUV
Субдискретизация насыщенности : 4:2:0
Битовая глубина : 8 бит
Тип развёртки : Прогрессивная
Бит/(Пиксели*Кадры) : 0.449
Размер потока : 4,27 Гбайт (93%)
Библиотека кодирования : x264 core 152 r2851kMod ba24899
Настройки программы : cabac=1 / ref=11 / deblock=1:-2:-2 / analyse=0x3:0x113 / me=umh / subme=11 / psy=1 / fade_compensate=0.00 / psy_rd=1.03:0.05 / mixed_ref=1 / me_range=48 / chroma_me=1 / trellis=2 / 8x8dct=1 / cqm=0 / deadzone=21,11 / fast_pskip=0 / chroma_qp_offset=-3 / threads=12 / lookahead_threads=2 / sliced_threads=0 / nr=0 / decimate=0 / interlaced=0 / bluray_compat=0 / constrained_intra=0 / bframes=9 / b_pyramid=2 / b_adapt=2 / b_bias=0 / direct=3 / weightb=1 / open_gop=0 / weightp=2 / keyint=240 / keyint_min=24 / scenecut=40 / intra_refresh=0 / rc_lookahead=40 / rc=2pass / mbtree=0 / bitrate=7923 / ratetol=1.0 / qcomp=0.60 / qpmin=0 / qpmax=39 / qpstep=4 / cplxblur=20.0 / qblur=0.5 / vbv_maxrate=50000 / vbv_bufsize=62500 / nal_hrd=none / filler=0 / ip_ratio=1.25 / pb_ratio=1.30 / aq=1:1.00
Язык : English
Default : Да
Forced : Нет
Цветовой диапазон : Limited
Основные цвета : BT.709
Характеристики трансфера : BT.709
Коэффициенты матрицы : BT.709

Аудио
Идентификатор : 2
Формат : AC-3
Формат/Информация : Audio Coding 3
Параметр Endianness формата : Big
Идентификатор кодека : A_AC3
Продолжительность : 1 ч. 18 м.
Вид битрейта : Постоянный
Битрейт : 448 Кбит/сек
Каналы : 6 каналов
Расположение каналов : Front: L C R, Side: L R, LFE
Частота : 48,0 КГц
Частота кадров : 31,250 кадров/сек (1536 SPF)
Битовая глубина : 16 бит
Метод сжатия : С потерями
Задержка видео : 200 мс.
Размер потока : 253 Мбайт (5%)
Язык : Russian
Default : Да
Forced : Да

Текст #1
Идентификатор : 3
Формат : UTF-8
Идентификатор кодека : S_TEXT/UTF8
Идентификатор кодека/Информация : UTF-8 Plain Text
Заголовок : RUS Full
Язык : Russian
Default : Нет
Forced : Нет

Текст #2
Идентификатор : 4
Формат : UTF-8
Идентификатор кодека : S_TEXT/UTF8
Идентификатор кодека/Информация : UTF-8 Plain Text
Заголовок : ENG Full
Язык : English
Default : Нет
Forced : Нет

Меню
00:00:00.000 : en:00:00:00.000
00:02:08.160 : en:00:02:08.160
00:08:05.760 : en:00:08:05.760
00:14:04.800 : en:00:14:04.800
00:17:49.920 : en:00:17:49.920
00:26:02.880 : en:00:26:02.880
00:32:10.080 : en:00:32:10.080
00:33:53.760 : en:00:33:53.760
00:37:41.760 : en:00:37:41.760
00:41:10.560 : en:00:41:10.560
00:44:14.400 : en:00:44:14.400
00:48:28.320 : en:00:48:28.320
00:52:59.520 : en:00:52:59.520
00:58:29.280 : en:00:58:29.280
01:05:36.000 : en:01:05:36.000
01:09:48.480 : en:01:09:48.480
01:16:06.720 : en:01:16:06.720

 

Вложения

  • 24 KB Просмотры: 0
    Личеров 0
    Сидеров 0
    Файлов 1
    Объем 4,6 GB

Привет!

Мы группа людей которые решили помочь другим в решении их проблем, а так же пользователям с поиском самых свежих и качественных инфопродуктов. За 4 с небольшим месяца мы создали этот форум на который заходят ежедневно тысячи человек и посещаемость постоянно растёт. Мы создали панель лицензирования для защиты PHP скриптов от воровства и SEO панель для мониторинга наших сайтов и выбора верной стратегии их развития. Мы надеемся что то что мы создали пригодится Вам и возможно Вы поможете нам развиваться и совершенствоваться вместе с Вами.

Статистика форума

Темы
324.994
Сообщения
343.389
Пользователи
22.925
Новый пользователь
Alligator007

Приложения форума для iOS и Android


У ркн там нет власти ;)
Гостевуха
Помощь Пользователи
    sntk Chat Bot: sntk покинул(а) комнату.