Морской ястреб / The Sea Hawk (1940) BDRip 720p от KORSAR | P, P2

Если Вы не хотите скачивать, Вы всегда можете посмотреть онлайн, просто нажмите кнопку ниже :

Открыть плеер

Torrent_Bot

Торрент-Бот
Бот форума
4 Окт 2016
5
1.004
20
#1



Информация о фильме
Название: Морской ястреб
Оригинальное название: The Sea Hawk
Год выпуска: 1940
Выпущено: США, Warner Bros. Pictures
Жанр:Приключения, мелодрама, пираты
Режиссер: Майкл Кёртис
В ролях: Бренда Маршалл, Дональд Крисп, Флора Робсон, Эррол Флинн, Клод Рейнс, Алан Хейл, Генри Дениэлл, Уна О`Коннор, Джеймс Стефенсон, Гилберт Роланд, Уильям Ландиган, Джулиан Митчелл

О фильме: Эррол Флинн в роли капитана пиратского корабля, ведущего необъявленную войну против Испании. Здесь есть все: морские сражения, поединки на шпагах, любовь к прекрасной испанке, приключения в джунглях Панамы, бунт английских моряков и их освобождение из рабства.

Продолжительность: 02:07:42
Перевод: Профессиональный многоголосый, профессиональный двухголосый
Субтитры: Русские, английские
Навигация по главам: Есть

Файл
Качество: BDRip 720p
Видео: MPEG-4 AVC, 6802 Кбит/сек, 988x720, 23,976 кадра/сек
Аудио #1: AC3, 2 ch, 192 Кбит/сек | Русский, профессиональный (двухголосый закадровый) Светла
Аудио #2: AC3, 2 ch, 192 Кбит/сек | Русский, профессиональный (многоголосый закадровый)
Аудио #3: AC3, 2 ch, 192 Кбит/сек | Английский, оригинал



Скриншоты
Инфо-файл
x264 [info]: frame I:1147 Avg QP:16.69 size:127338
x264 [info]: frame P:38838 Avg QP:18.94 size: 64323
x264 [info]: frame B:143717 Avg QP:21.70 size: 26935
-----------------------------------------------------
Общее
Уникальный идентификатор : 214495218613538258988512080623825061555 (0xA15E46C5230A291B8923DBCE04A406B3)
Полное имя : Морской.ястреб.1940.BDRip.720p.KORSAR.mkv
Формат : Matroska
Версия формата : Version 2
Размер файла : 6,58 Гбайт
Продолжительность : 2 ч. 7 м.
Общий поток : 7381 Кбит/сек
Дата кодирования : UTC 2019-01-03 05:42:46
Программа кодирования : mkvmerge v5.8.0 ('No Sleep / Pillow') built on Sep 2 2012 15:37:04
Библиотека кодирования : libebml v1.2.3 + libmatroska v1.3.0

Видео
Идентификатор : 1
Формат : AVC
Формат/Информация : Advanced Video Codec
Профиль формата : [email protected]
Настройки формата : CABAC / 11 Ref Frames
Параметр CABAC формата : Да
Параметр RefFrames формата : 11 кадров
Идентификатор кодека : V_MPEG4/ISO/AVC
Продолжительность : 2 ч. 7 м.
Битрейт : 6802 Кбит/сек
Ширина : 988 пикселей
Высота : 720 пикселей
Соотношение сторон : 1,372
Режим частоты кадров : Постоянный
Частота кадров : 23,976 (24000/1001) кадра/сек
Цветовое пространство : YUV
Субдискретизация насыщенности : 4:2:0
Битовая глубина : 8 бит
Тип развёртки : Прогрессивная
Бит/(Пиксели*Кадры) : 0.399
Размер потока : 5,94 Гбайт (90%)
Заголовок : RIP | MZMA
Библиотека кодирования : x264 core 152 r2851kMod ba24899
Настройки программы : cabac=1 / ref=11 / deblock=1:-2:-2 / analyse=0x3:0x113 / me=umh / subme=11 / psy=1 / fade_compensate=0.00 / psy_rd=1.00:0.00 / mixed_ref=1 / me_range=48 / chroma_me=1 / trellis=2 / 8x8dct=1 / cqm=0 / deadzone=21,11 / fast_pskip=0 / chroma_qp_offset=-2 / threads=6 / lookahead_threads=1 / sliced_threads=0 / nr=0 / decimate=0 / interlaced=0 / bluray_compat=0 / constrained_intra=0 / bframes=16 / b_pyramid=2 / b_adapt=2 / b_bias=0 / direct=3 / weightb=1 / open_gop=0 / weightp=2 / keyint=240 / keyint_min=23 / scenecut=40 / intra_refresh=0 / rc_lookahead=60 / rc=2pass / mbtree=1 / bitrate=6802 / ratetol=1.0 / qcomp=0.60 / qpmin=0 / qpmax=69 / qpstep=4 / cplxblur=20.0 / qblur=0.5 / vbv_maxrate=50000 / vbv_bufsize=62500 / nal_hrd=none / filler=0 / ip_ratio=1.25 / aq=2:0.70
Язык : English
По умолчанию : Да
Принудительно : Нет
Цветовой диапазон : Limited
Основные цвета : BT.709
Характеристики трансфера : BT.709
Коэффициенты матрицы : BT.709

Аудио #1
Идентификатор : 2
Формат : AC-3
Формат/Информация : Audio Coding 3
Идентификатор кодека : A_AC3
Продолжительность : 2 ч. 7 м.
Вид битрейта : Постоянный
Битрейт : 192 Кбит/сек
Каналы : 2 канала
Расположение каналов : Front: L R
Частота : 48,0 КГц
Частота кадров : 31,250 кадров/сек (1536 SPF)
Битовая глубина : 16 бит
Метод сжатия : С потерями
Размер потока : 175 Мбайт (3%)
Заголовок : DVO | Светла
Язык : Russian
По умолчанию : Да
Принудительно : Нет

Аудио #2
Идентификатор : 3
Формат : AC-3
Формат/Информация : Audio Coding 3
Идентификатор кодека : A_AC3
Продолжительность : 2 ч. 7 м.
Вид битрейта : Постоянный
Битрейт : 192 Кбит/сек
Каналы : 2 канала
Расположение каналов : Front: L R
Частота : 48,0 КГц
Частота кадров : 31,250 кадров/сек (1536 SPF)
Битовая глубина : 16 бит
Метод сжатия : С потерями
Размер потока : 175 Мбайт (3%)
Заголовок : MVO
Язык : Russian
По умолчанию : Нет
Принудительно : Нет

Аудио #3
Идентификатор : 4
Формат : AC-3
Формат/Информация : Audio Coding 3
Идентификатор кодека : A_AC3
Продолжительность : 2 ч. 7 м.
Вид битрейта : Постоянный
Битрейт : 192 Кбит/сек
Каналы : 2 канала
Расположение каналов : Front: L R
Частота : 48,0 КГц
Частота кадров : 31,250 кадров/сек (1536 SPF)
Битовая глубина : 16 бит
Метод сжатия : С потерями
Размер потока : 175 Мбайт (3%)
Заголовок : Original
Язык : English
По умолчанию : Нет
Принудительно : Нет

Текст #1
Идентификатор : 5
Формат : UTF-8
Идентификатор кодека : S_TEXT/UTF8
Идентификатор кодека/Информация : UTF-8 Plain Text
Заголовок : Светла
Язык : Russian
По умолчанию : Нет
Принудительно : Нет

Текст #2
Идентификатор : 6
Формат : UTF-8
Идентификатор кодека : S_TEXT/UTF8
Идентификатор кодека/Информация : UTF-8 Plain Text
Язык : English
По умолчанию : Нет
Принудительно : Нет

Текст #3
Идентификатор : 7
Формат : UTF-8
Идентификатор кодека : S_TEXT/UTF8
Идентификатор кодека/Информация : UTF-8 Plain Text
Заголовок : SDH
Язык : English
По умолчанию : Нет
Принудительно : Нет

Меню
00:00:00.000 : en:Chapter 01
00:01:28.755 : en:Chapter 02
00:03:42.639 : en:Chapter 03
00:08:43.648 : en:Chapter 04
00:13:29.099 : en:Chapter 05
00:18:22.267 : en:Chapter 06
00:23:42.712 : en:Chapter 07
00:28:35.880 : en:Chapter 08
00:32:55.390 : en:Chapter 09
00:37:29.038 : en:Chapter 10
00:41:22.563 : en:Chapter 11
00:45:37.484 : en:Chapter 12
00:48:20.731 : en:Chapter 13
00:52:00.992 : en:Chapter 14
00:55:10.557 : en:Chapter 15
00:59:14.092 : en:Chapter 16
01:02:26.826 : en:Chapter 17
01:04:54.015 : en:Chapter 18
01:08:53.087 : en:Chapter 19
01:12:01.483 : en:Chapter 20
01:15:57.052 : en:Chapter 21
01:20:43.922 : en:Chapter 22
01:23:17.325 : en:Chapter 23
01:26:18.173 : en:Chapter 24
01:31:45.833 : en:Chapter 25
01:35:13.040 : en:Chapter 26
01:40:48.709 : en:Chapter 27
01:45:26.486 : en:Chapter 28
01:50:48.975 : en:Chapter 29
01:56:30.525 : en:Chapter 30
01:59:03.803 : en:Chapter 31
02:01:28.656 : en:Chapter 32
02:04:03.394 : en:Chapter 33
02:06:55.858 : en:Chapter 34
02:07:40.903 : en:Chapter 35
Скачать сэмпл
Morskoy.yastreb.1940.BDRip.720p.KORSAR_sample.mkv
Релиз от:
 

Вложения

  • 33,9 KB Просмотры: 0
    Личеров 0
    Сидеров 0
    Файлов 1
    Объем 6,6 GB

Похожие темы

Привет!

Мы группа людей которые решили помочь другим в решении их проблем, а так же пользователям с поиском самых свежих и качественных инфопродуктов. За 4 с небольшим месяца мы создали этот форум на который заходят ежедневно тысячи человек и посещаемость постоянно растёт. Мы создали панель лицензирования для защиты PHP скриптов от воровства и SEO панель для мониторинга наших сайтов и выбора верной стратегии их развития. Мы надеемся что то что мы создали пригодится Вам и возможно Вы поможете нам развиваться и совершенствоваться вместе с Вами.

Статистика форума

Темы
326.025
Сообщения
344.502
Пользователи
23.002
Новый пользователь
Vitaloy208621

Приложения форума для iOS и Android


У ркн там нет власти ;)
Гостевуха
Помощь Пользователи
    sntk Chat Bot: sntk покинул(а) комнату.