Не стреляйте в белых лебедей (1980) SATRip-AVC от KORSAR

Если Вы не хотите скачивать, Вы всегда можете посмотреть онлайн, просто нажмите кнопку ниже :

Открыть плеер

Torrent_Bot

Торрент-Бот
Бот форума
4 Окт 2016
5
1.004
20
#1
Информация о фильме
Название: Не стреляйте в белых лебедей
Год выпуска: 1980
Жанр:Драма, экранизация
Режиссер: Родион Нахапетов
В ролях: Станислав Любшин, Нина Русланова, Витя Анисимов, Вера Глаголева, Ивар Калныньш, Николай Карнаухов, Иван Агафонов, Владимир Пожидаев, Александр Сажин, Владимир Заманский, Алла Майкова, Игорь Фокин, Анастасия Рапопорт, Женя Никитченко

О фильме: Драма по одноименному роману Бориса Васильева. За Егором Полушкиным закрепилось прозвище «бедоносец». На самом деле, «беда» этого непрактичного человека в том, что не похож он на большинство односельчан, все делает по своему разумению, как душа подсказывает. А душа у него по-детски нежная, ранимая. Наделенный талантом художника, он тонко чувствует красоту и очень хочет, чтобы ее побольше было в жизни людей, чтоб берегли ее и ценили. За это ему придется заплатить самой дорогой ценой.



Выпущено: СССР, Мосфильм
Продолжительность: 2 х ~ 01:07:00
Перевод: Не требуется

Файл
Качество: SATRip-AVC
Видео: MPEG-4 AVC, [email protected]х556, 2600 Кбит/с, 25.000 Кадр/с
Аудио: AC3, 2 ch, 192 Кбит/с
Субтитры: Нет

Релиз от:


Скриншоты
MediaInfo
x264 [info]: frame I:481 Avg QP:15.69 size: 63884
x264 [info]: frame P:28143 Avg QP:19.11 size: 26529
x264 [info]: frame B:75533 Avg QP:20.80 size: 7639

=====================================

Общее
Уникальный идентификатор : 223184868261354860917488268099267379013 (0xA7E7D79355224C6EB012AE9078B0BF45)
Полное имя : Не стреляйте в белых лебедей.1980.SATRip-AVC.KORSAR.mkv
Формат : Matroska
Версия формата : Version 2
Размер файла : 1,36 Гбайт
Продолжительность : 1 ч. 9 м.
Общий поток : 2794 Кбит/сек
Дата кодирования : UTC 2014-10-31 09:36:37
Программа кодирования : mkvmerge v5.2.0 ('I can't explain') built on Dec 18 2011 18:12:03
Библиотека кодирования : libebml v1.2.3 + libmatroska v1.3.0

Видео
Идентификатор : 1
Формат : AVC
Формат/Информация : Advanced Video Codec
Профиль формата : [email protected]
Параметр CABAC формата : Да
Параметр ReFrames формата : 16 кадров
Идентификатор кодека : V_MPEG4/ISO/AVC
Продолжительность : 1 ч. 9 м.
Битрейт : 2600 Кбит/сек
Ширина : 712 пикселей
Высота : 556 пикселей
Соотношение сторон : 4:3
Соотношение сторон в оригинале : 4:3
Режим частоты кадров : Постоянный
Частота кадров : 25,000 кадров/сек
Цветовое пространство : YUV
Субдискретизация насыщенности : 4:2:0
Битовая глубина : 8 бит
Тип развёртки : Прогрессивная
Бит/(Пиксели*Кадры) : 0.263
Размер потока : 1,24 Гбайт (91%)
Библиотека кодирования : x264 core 142 r2431 ac76440
Настройки программы : cabac=1 / ref=16 / deblock=1:-2:-2 / analyse=0x3:0x133 / me=umh / subme=10 / psy=1 / psy_rd=1.07:0.15 / mixed_ref=0 / me_range=32 / chroma_me=1 / trellis=2 / 8x8dct=1 / cqm=0 / deadzone=21,11 / fast_pskip=0 / chroma_qp_offset=-3 / threads=12 / lookahead_threads=3 / sliced_threads=0 / nr=0 / decimate=0 / interlaced=0 / bluray_compat=0 / constrained_intra=0 / bframes=16 / b_pyramid=2 / b_adapt=2 / b_bias=0 / direct=3 / weightb=1 / open_gop=0 / weightp=2 / keyint=250 / keyint_min=25 / scenecut=40 / intra_refresh=0 / rc=2pass / mbtree=0 / bitrate=2600 / ratetol=1.0 / qcomp=0.65 / qpmin=0 / qpmax=39 / qpstep=4 / cplxblur=20.0 / qblur=0.5 / ip_ratio=1.40 / pb_ratio=1.30 / aq=1:1.00
Язык : English
Default : Да
Forced : Нет
Основные цвета : BT.601 PAL
Характеристики трансфера : BT.470 System B, BT.470 System G
Коэффициенты матрицы : BT.601

Аудио
Идентификатор : 2
Формат : AC-3
Формат/Информация : Audio Coding 3
Расширение режима : CM
Параметр Endianness формата : Big
Идентификатор кодека : A_AC3
Продолжительность : 1 ч. 9 м.
Вид битрейта : Постоянный
Битрейт : 192 Кбит/сек
Каналы : 2 канала
Расположение каналов : Front: L R
Частота : 48,0 КГц
Битовая глубина : 16 бит
Метод сжатия : С потерями
Задержка видео : 4 мс.
Размер потока : 95,4 Мбайт (7%)
Язык : Russian
Default : Да
Forced : Нет
 

Вложения

  • 14,3 KB Просмотры: 0
    Личеров 0
    Сидеров 0
    Файлов 2
    Объем 2,6 GB

Привет!

Мы группа людей которые решили помочь другим в решении их проблем, а так же пользователям с поиском самых свежих и качественных инфопродуктов. За 4 с небольшим месяца мы создали этот форум на который заходят ежедневно тысячи человек и посещаемость постоянно растёт. Мы создали панель лицензирования для защиты PHP скриптов от воровства и SEO панель для мониторинга наших сайтов и выбора верной стратегии их развития. Мы надеемся что то что мы создали пригодится Вам и возможно Вы поможете нам развиваться и совершенствоваться вместе с Вами.

Статистика форума

Темы
326.025
Сообщения
344.504
Пользователи
23.009
Новый пользователь
Tdhda

Приложения форума для iOS и Android


У ркн там нет власти ;)
Гостевуха
Помощь Пользователи
    sntk Chat Bot: sntk покинул(а) комнату.