Неизвестная тварь / Of Unknown Origin (1983) BDRip 720p | P, P2, A

Если Вы не хотите скачивать, Вы всегда можете посмотреть онлайн, просто нажмите кнопку ниже :

Открыть плеер

Torrent_Bot

Торрент-Бот
Бот форума
4 Окт 2016
5
1.004
20
#1



Информация о фильме
Название: Неизвестная тварь
Оригинальное название: Of Unknown Origin
Год выхода: 1983
Жанр: ужасы
Режиссер: Джордж П. Косматос
В ролях: Питер Уэллер, Дженнифер Дэйл, Лоуренс Дэйн, Кеннет Уэлш, Луис Дель Гранде, Шэннон Твид, Кейт Найт, Мори Чайкин, Лейф Андерсон, Джимми Тапп, Гэйл Гарфинкл, Эрл Пеннингтон, Джэклин Уэбб, Бронуэн Мэнтел, Моник Нантел, Эме Кастл, Джесси Грасис, Тара О’Доннелл, Эмбер Т. Чейз

О фильме:
В Манхэттене в подвале дома Барта Хьюза происходят странные и страшные вещи. Неизвестное свирепое существо, наделенное сверхъестественным чутьем и силой, угрожает жизни Барта и других, оно стремится безраздельно владеть заброшенным домом…

Этот монстр — гигантская крыса, а голодных крыс, как известно, ничто не остановит, даже мор или ядерная бомба. И Барт спускается в подвал, чтобы схватиться со страшным противником…



Страна: Канада, США
Продолжительность: 01:29:04
Перевод: Профессиональный (многоголосый, закадровый), профессиональный (двухголосый, закадровый), авторский (одноголосый, закадровый)

Файл
Качество: BDRip 720p ("New 2K scan from the interpositive")
Видео: MPEG-4 AVC, 8500 kbps, 1280x690
Аудио 1: Russian; AC3; 48.0 KHz; 2ch; 192 Kbps | ВГТРК
Аудио 2: Russian; AC3; 48.0 KHz; 2ch; 192 Kbps | Варус Видео
Аудио 3: Russian; AC3; 48.0 KHz; 1ch; 192 Kbps | М.Логинофф
Аудио 4: English; AC3; 48.0 KHz; 2ch; 224 Kbps | Original
Субтитры: английские

Скриншоты
MediaInfo
General
Unique ID : 291502139011247600688339723257453829711 (0xDB4D451411819D896F69F9F565395E4F)
Complete name : Of.Unknown.Origin.1983.BDRip.720p.mkv
Format : Matroska
Format version : Version 4 / Version 2
File size : 5.79 GiB
Duration : 1 h 29 min
Overall bit rate : 9 316 kb/s
Encoded date : UTC 2018-08-13 09:36:01
Writing application : mkvmerge v25.0.0 ('Prog Noir') 64-bit
Writing library : libebml v1.3.6 + libmatroska v1.4.9

Video
ID : 1
Format : AVC
Format/Info : Advanced Video Codec
Format profile : [email protected]
Format settings : CABAC / 9 Ref Frames
Format settings, CABAC : Yes
Format settings, ReFrames : 9 frames
Codec ID : V_MPEG4/ISO/AVC
Duration : 1 h 29 min
Bit rate : 8 500 kb/s
Width : 1 280 pixels
Height : 690 pixels
Display aspect ratio : 1.85:1
Frame rate mode : Constant
Frame rate : 23.976 (24000/1001) FPS
Color space : YUV
Chroma subsampling : 4:2:0
Bit depth : 8 bits
Scan type : Progressive
Bits/(Pixel*Frame) : 0.401
Stream size : 5.29 GiB (91%)
Title : Of.Unknown.Origin.1983.BDRip.720p.x264-MM
Writing library : x264 core 146 r2538 121396c
Encoding settings : cabac=1 / ref=9 / deblock=1:-3:-3 / analyse=0x3:0x113 / me=umh / subme=11 / psy=1 / psy_rd=1.00:0.00 / mixed_ref=1 / me_range=48 / chroma_me=1 / trellis=2 / 8x8dct=1 / cqm=0 / deadzone=21,11 / fast_pskip=0 / chroma_qp_offset=-2 / threads=12 / lookahead_threads=3 / sliced_threads=0 / nr=0 / decimate=0 / interlaced=0 / bluray_compat=0 / constrained_intra=0 / bframes=12 / b_pyramid=2 / b_adapt=2 / b_bias=0 / direct=3 / weightb=1 / open_gop=1 / weightp=2 / keyint=250 / keyint_min=23 / scenecut=40 / intra_refresh=0 / rc_lookahead=60 / rc=2pass / mbtree=0 / bitrate=8500 / ratetol=1.0 / qcomp=0.60 / qpmin=0 / qpmax=69 / qpstep=4 / cplxblur=20.0 / qblur=0.5 / vbv_maxrate=50000 / vbv_bufsize=62500 / nal_hrd=none / filler=0 / ip_ratio=1.40 / pb_ratio=1.30 / aq=1:1.10
Language : English
Default : Yes
Forced : No

Audio #1
ID : 2
Format : AC-3
Format/Info : Audio Coding 3
Codec ID : A_AC3
Duration : 1 h 29 min
Bit rate mode : Constant
Bit rate : 192 kb/s
Channel(s) : 2 channels
Channel positions : Front: L R
Sampling rate : 48.0 kHz
Frame rate : 31.250 FPS (1536 SPF)
Bit depth : 16 bits
Compression mode : Lossy
Stream size : 122 MiB (2%)
Title : MVO ВГТРК
Language : Russian
Service kind : Complete Main
Default : Yes
Forced : No

Audio #2
ID : 3
Format : AC-3
Format/Info : Audio Coding 3
Codec ID : A_AC3
Duration : 1 h 29 min
Bit rate mode : Constant
Bit rate : 192 kb/s
Channel(s) : 2 channels
Channel positions : Front: L R
Sampling rate : 48.0 kHz
Frame rate : 31.250 FPS (1536 SPF)
Bit depth : 16 bits
Compression mode : Lossy
Stream size : 122 MiB (2%)
Title : DVO Варус Видео
Language : Russian
Service kind : Complete Main
Default : No
Forced : No

Audio #3
ID : 4
Format : AC-3
Format/Info : Audio Coding 3
Codec ID : A_AC3
Duration : 1 h 29 min
Bit rate mode : Constant
Bit rate : 192 kb/s
Channel(s) : 1 channel
Channel positions : Front: C
Sampling rate : 48.0 kHz
Frame rate : 31.250 FPS (1536 SPF)
Bit depth : 16 bits
Compression mode : Lossy
Stream size : 122 MiB (2%)
Title : AVO Логинофф
Language : Russian
Service kind : Complete Main
Default : No
Forced : No

Audio #4
ID : 5
Format : AC-3
Format/Info : Audio Coding 3
Codec ID : A_AC3
Duration : 1 h 29 min
Bit rate mode : Constant
Bit rate : 224 kb/s
Channel(s) : 2 channels
Channel positions : Front: L R
Sampling rate : 48.0 kHz
Frame rate : 31.250 FPS (1536 SPF)
Bit depth : 16 bits
Compression mode : Lossy
Stream size : 143 MiB (2%)
Title : Original
Language : English
Service kind : Complete Main
Default : No
Forced : No

Text
ID : 6
Format : PGS
Muxing mode : zlib
Codec ID : S_HDMV/PGS
Codec ID/Info : Picture based subtitle format used on BDs/HD-DVDs
Duration : 1 h 26 min
Bit rate : 25.3 kb/s
Count of elements : 1348
Stream size : 15.6 MiB (0%)
Language : English
Default : Yes
Forced : No
ЦитатаКто-то писал:
Рип с Of.Unknown.Origin.1983.1080p.Blu-ray.Remux.AVC.DTS-HD.MA.2.0-AlanSmithee
Синхронизация звука - GoldDust
 

Вложения

  • 116,8 KB Просмотры: 0
    Личеров 0
    Сидеров 0
    Файлов 1
    Объем 5,8 GB

Похожие темы

Привет!

Мы группа людей которые решили помочь другим в решении их проблем, а так же пользователям с поиском самых свежих и качественных инфопродуктов. За 4 с небольшим месяца мы создали этот форум на который заходят ежедневно тысячи человек и посещаемость постоянно растёт. Мы создали панель лицензирования для защиты PHP скриптов от воровства и SEO панель для мониторинга наших сайтов и выбора верной стратегии их развития. Мы надеемся что то что мы создали пригодится Вам и возможно Вы поможете нам развиваться и совершенствоваться вместе с Вами.

Статистика форума

Темы
324.985
Сообщения
343.359
Пользователи
22.907
Новый пользователь
5457032

Онлайн статистика

Пользователей онлайн
18
Гостей онлайн
182
Всего посетителей
200

Приложения форума для iOS и Android


У ркн там нет власти ;)
Гостевуха
Помощь Пользователи
    sntk Chat Bot: sntk покинул(а) комнату.