Незнакомцы: Жестокие игры / The Strangers: Prey at Night (2018) DVD9 | Лицензия

Если Вы не хотите скачивать, Вы всегда можете посмотреть онлайн, просто нажмите кнопку ниже :

Открыть плеер

Torrent_Bot

Торрент-Бот
Бот форума
4 Окт 2016
5
1.004
20
#1


Информация о фильме
Название: Незнакомцы: Жестокие игры
Оригинальное название: The Strangers: Prey at Night
Год выхода: 2018
Жанр: ужасы
Режиссер: Йоханнес Робертс
В ролях: Кристина Хендрикс, Мартин Хендерсон, Бэйли Мэдисон, Льюис Пуллман, Дэмиэн Маффей, Эмма Белломи, Лиа Энзлин, Кен Штрунк

О фильме:
Американская семья отправляется в небольшое путешествие навестить родственников, которые живут в кемпинге. Но автомобильный лагерь оказывается пуст. Под покровом ночи появляются трое психопатов в масках, цель которых не грабить или убивать, а выяснить, какой у каждого из членов семьи личный предел жажды жизни.





Страна: Великобритания, США
Студия: Bloom, Clarius Entertainment, Rogue Pictures, thefyzz, White Comet Films
Продолжительность: 81 мин. / 01:21
Перевод: профессиональный (дублированный) лицензия

Файл
Кодек: MPEG2
Качество: DVD9 R5
Видео: PAL 16:9 ([email protected]) VBR 6003 Kbps, 25.000 fps
Аудио 1: Dolby AC3, 6 ch, 48.0 KHz, 448 Kbps (русский)
Аудио 2: Dolby AC3, 6 ch, 48.0 KHz, 448 Kbps (английский)
Субтитры: русские


MediaInfo
Общее
Полное имя : Neznakomcyi.Gestokie.Igtyi.2018.DVD9VIDEO_TSVTS_14_1.VOB
Формат : MPEG-PS
Размер файла : 1000 Мбайт
Продолжительность : 19 м. 51 с.
Режим общего битрейта : Переменный
Общий поток : 7040 Кбит/сек

Видео
Идентификатор : 224 (0xE0)
Формат : MPEG Video
Версия формата : Version 2
Профиль формата : [email protected]
Настройки формата : BVOP
Параметр BVOP формата : Да
Параметр матрицы формата : По умолчанию
Параметр GOP формата : M=3, N=12
Продолжительность : 19 м. 51 с.
Вид битрейта : Переменный
Битрейт : 6003 Кбит/сек
Максимальный битрейт : 9000 Кбит/сек
Ширина : 720 пикселей
Высота : 576 пикселей
Соотношение сторон : 16:9
Частота кадров : 25,000 кадров/сек
Стандарт вещания : PAL
Цветовое пространство : YUV
Субдискретизация насыщенности : 4:2:0
Битовая глубина : 8 бит
Тип развёртки : Прогрессивная
Метод сжатия : С потерями
Бит/(Пиксели*Кадры) : 0.579
Временной код первого кадра : 00:00:00:00
Оригинал временного кода : Group of pictures header
GOP, открыто/закрыто : Открыто
GOP, открыто/закрыто на первом кадре : Закрыто
Размер потока : 853 Мбайт (85%)

Аудио #1
Идентификатор : 189 (0xBD)-128 (0x80)
Формат : AC-3
Формат/Информация : Audio Coding 3
Режим смешивания : DVD-Video
Продолжительность : 19 м. 51 с.
Вид битрейта : Постоянный
Битрейт : 448 Кбит/сек
Каналы : 6 каналов
Расположение каналов : Front: L C R, Side: L R, LFE
Частота : 48,0 КГц
Частота кадров : 31,250 кадров/сек (1536 SPF)
Битовая глубина : 16 бит
Метод сжатия : С потерями
Размер потока : 63,6 Мбайт (6%)

Аудио #2
Идентификатор : 189 (0xBD)-129 (0x81)
Формат : AC-3
Формат/Информация : Audio Coding 3
Режим смешивания : DVD-Video
Продолжительность : 19 м. 51 с.
Вид битрейта : Постоянный
Битрейт : 448 Кбит/сек
Каналы : 6 каналов
Расположение каналов : Front: L C R, Side: L R, LFE
Частота : 48,0 КГц
Частота кадров : 31,250 кадров/сек (1536 SPF)
Битовая глубина : 16 бит
Метод сжатия : С потерями
Размер потока : 63,6 Мбайт (6%)

Текст #1
Идентификатор : 189 (0xBD)-32 (0x20)
Формат : RLE
Формат/Информация : Run-length encoding
Режим смешивания : DVD-Video

Текст #2
Идентификатор : 189 (0xBD)-33 (0x21)
Формат : RLE
Формат/Информация : Run-length encoding
Режим смешивания : DVD-Video

Меню
Скриншоты
 

Вложения

  • 30,4 KB Просмотры: 0
    Личеров 0
    Сидеров 0
    Файлов 53
    Объем 5,4 GB

Похожие темы

Привет!

Мы группа людей которые решили помочь другим в решении их проблем, а так же пользователям с поиском самых свежих и качественных инфопродуктов. За 4 с небольшим месяца мы создали этот форум на который заходят ежедневно тысячи человек и посещаемость постоянно растёт. Мы создали панель лицензирования для защиты PHP скриптов от воровства и SEO панель для мониторинга наших сайтов и выбора верной стратегии их развития. Мы надеемся что то что мы создали пригодится Вам и возможно Вы поможете нам развиваться и совершенствоваться вместе с Вами.

Статистика форума

Темы
326.025
Сообщения
344.504
Пользователи
23.009
Новый пользователь
Tdhda

Приложения форума для iOS и Android


У ркн там нет власти ;)
Гостевуха
Помощь Пользователи
    sntk Chat Bot: sntk покинул(а) комнату.