Няня / The Babysitter (2017) WEBRip | Jaskier

Если Вы не хотите скачивать, Вы всегда можете посмотреть онлайн, просто нажмите кнопку ниже :

Открыть плеер

Torrent_Bot

Торрент-Бот
Бот форума
4 Окт 2016
5
1.004
20
#1



Информация о фильме
Название: Няня
Оригинальное название: The Babysitter
Год выхода: 2017
Жанр: Ужасы
Режиссер: МакДжи
В ролях: Белла Торн, Самара Уивинг, Лесли Бибб, Робби Амелл, Хана Мэй Ли, Эмили Элин Линд, Эндрю Бэчелор, Джуда Льюис, Даг Хейли, Крис Уайлд

О фильме:
Коул по уши влюблён в свою няню Би — красивую, весёлую, умную и уверенную в себе девушку. Однажды ночью мальчишка решает не ложиться спать и проследить за ней. Но события принимают неожиданный поворот: няня оказывается хладнокровной убийцей, служащей самому дьяволу.



Страна: США
Студия: Boies / Schiller Film Group, New Line Cinema, Wonderland Sound and Vision
Продолжительность: 01:25:13
Перевод: Профессиональный (многоголосый, закадровый) Jaskier

Файл
Формат: AVI
Качество: WEBRip
Видео: XviD, 720x304, 23.976 fps, 2042 kbps
Звук: AC3, 6 ch, 384 kbps
Субтитры: отсутствуют


***Примечание: Без рекламы.

MI
Общее
Полное имя : G:ЗагрузкиThe.Babysitter.2017.WEBRip.Jaskier.avi
Формат : AVI
Формат/Информация : Audio Video Interleave
Размер файла : 1,45 Гбайт
Продолжительность : 1 ч. 25 м.
Общий поток : 2435 Кбит/сек
Программа кодирования : VirtualDubMod 1.5.10.3 | www.virtualdub-fr.org || (build 2550/release)
Библиотека кодирования : VirtualDubMod build 2550/release

Видео
Идентификатор : 0
Формат : MPEG-4 Visual
Профиль формата : Advanced [email protected]
Настройки формата : BVOP1 / Custom Matrix
Параметр BVOP формата : 1
Параметр QPel формата : Нет
Параметр GMC формата : Без точки перехода
Параметр матрицы формата : Выборочная
Идентификатор кодека : XVID
Идентификатор кодека/Подсказка : XviD
Продолжительность : 1 ч. 25 м.
Битрейт : 2042 Кбит/сек
Ширина : 720 пикселей
Высота : 304 пикселя
Соотношение сторон : 2,35:1
Частота кадров : 23,976 (24000/1001) кадра/сек
Цветовое пространство : YUV
Субдискретизация насыщенности : 4:2:0
Битовая глубина : 8 бит
Тип развёртки : Прогрессивная
Метод сжатия : С потерями
Бит/(Пиксели*Кадры) : 0.389
Размер потока : 1,22 Гбайт (84%)
Библиотека кодирования : XviD 73

Аудио
Идентификатор : 1
Формат : AC-3
Формат/Информация : Audio Coding 3
Коммерческое название : Dolby Digital
Идентификатор кодека : 2000
Продолжительность : 1 ч. 25 м.
Вид битрейта : Постоянный
Битрейт : 384 Кбит/сек
Каналы : 6 каналов
Channel layout : L R C LFE Ls Rs
Частота : 48,0 КГц
Частота кадров : 31,250 кадров/сек (1536 SPF)
Битовая глубина : 16 бит
Метод сжатия : С потерями
Размер потока : 234 Мбайт (16%)
Выравнивание : Разделение по промежуткам
Продолжительность промежутка : 42 мс. (1,00 видеокадр)
Время предзагрузки промежутка : 500 мс.
Скриншоты
 

Вложения

  • 15,6 KB Просмотры: 0
    Личеров 0
    Сидеров 0
    Файлов 1
    Объем 1,4 GB

Привет!

Мы группа людей которые решили помочь другим в решении их проблем, а так же пользователям с поиском самых свежих и качественных инфопродуктов. За 4 с небольшим месяца мы создали этот форум на который заходят ежедневно тысячи человек и посещаемость постоянно растёт. Мы создали панель лицензирования для защиты PHP скриптов от воровства и SEO панель для мониторинга наших сайтов и выбора верной стратегии их развития. Мы надеемся что то что мы создали пригодится Вам и возможно Вы поможете нам развиваться и совершенствоваться вместе с Вами.

Статистика форума

Темы
326.154
Сообщения
344.690
Пользователи
23.092
Новый пользователь
Дмитрий280291

Приложения форума для iOS и Android


У ркн там нет власти ;)
Гостевуха
Помощь Пользователи
    Captain @ Captain: Батя в здание