Однажды в Америке или Чисто русская сказка (2018) WEBRip-AVC

Если Вы не хотите скачивать, Вы всегда можете посмотреть онлайн, просто нажмите кнопку ниже :

Открыть плеер

Torrent_Bot

Торрент-Бот
Бот форума
4 Окт 2016
5
1.004
20
#1


Информация о фильме
Название: Однажды в Америке или чисто русская сказка
Год выхода: 2018
Жанр: Комедия
Режиссер: Дмитрий Панченко
В ролях: Михаил Башкатов, Эммануил Виторган, Юрий Гальцев, Марина Орлова, Елена Синилова, братья Пономаренко, Николай Бандурин, Игорь Письменный, Елена Задорнова

О фильме: В маленькой стране Аннунакия на престол восходит молодой король — Макбук-102-й. Согласно завещанию отца, Макбук должен взять в гарем юбилейную русскую жену. И так совпало, что как раз в это время по стране гастролирует русский народный ансамбль! В то время, пока молодой король ищет русскую красавицу, президент государства Самая Шибкодемократическая Автономия (сокращенно — С.Ш.А.) планирует во что бы то ни стало сделать Аннунакию демократической страной.

Страна: Россия / ООО «КИНОКОМПАНИЯ “ЗАДОРНОЕ КИНО”»
Продолжительность: 01:35:07
Перевод: не требуется

Файл
Качество: WEBRip-AVC
Формат: MKV
Видео: MPEG-4 AVC/H.264, 2600 Кбит/сек, 1024x428
Звук: AC3, 2 ch, 192 Кбит/с
Субтитры: нет

MediaInfo:
Общее
Уникальный идентификатор : 214156123276398002475626277485727435698 (0xA11CF81443589B960DBCF3109D67CBB2)
Полное имя : F:Диск2. ФИЛЬМЫ СНГОднажды в Америке, или Чисто русская сказка (2018)«Однажды в Америке, или Чисто русская сказка».WEBRip-AVC.mkv
Формат : Matroska
Версия формата : Version 4
Размер файла : 1,84 Гбайт
Продолжительность : 1 ч. 35 м.
Общий поток : 2762 Кбит/сек
Программа кодирования : XviD4PSP 7.0.461 DAILY
Библиотека кодирования : Lavf57.71.100
Авторское право : [#ZsU®]
ErrorDetectionType : Per level 1
Attachments : poster.jpg
ENCODING_INFO : MATROSKA,WEBM > MKV Пользовательский / H264 > X264 ABR 2600kbps HQ / AC3 > AC3 CBR 192kbps
Язык : und

Видео
Идентификатор : 1
Формат : AVC
Формат/Информация : Advanced Video Codec
Профиль формата : [email protected]
Настройки формата : CABAC / 11 Ref Frames
Параметр CABAC формата : Да
Параметр RefFrames формата : 11 кадров
Идентификатор кодека : V_MPEG4/ISO/AVC
Продолжительность : 1 ч. 35 м.
Битрейт : 2600 Кбит/сек
Ширина : 1024 пикселя
Высота : 428 пикселей
Соотношение сторон : 2,40:1
Режим частоты кадров : Постоянный
Частота кадров : 25,000 кадров/сек
Цветовое пространство : YUV
Субдискретизация насыщенности : 4:2:0
Битовая глубина : 8 бит
Тип развёртки : Прогрессивная
Бит/(Пиксели*Кадры) : 0.237
Размер потока : 1,67 Гбайт (91%)
Библиотека кодирования : x264 core 157 r2935M 545de2f
Настройки программы : cabac=1 / ref=11 / deblock=1:-3:-3 / analyse=0x3:0x133 / me=umh / subme=11 / psy=1 / psy_rd=1.00:0.20 / mixed_ref=1 / me_range=32 / chroma_me=1 / trellis=2 / 8x8dct=1 / cqm=0 / deadzone=21,11 / fast_pskip=1 / chroma_qp_offset=-3 / threads=12 / lookahead_threads=1 / sliced_threads=0 / nr=0 / decimate=1 / interlaced=0 / bluray_compat=0 / constrained_intra=0 / bframes=11 / b_pyramid=2 / b_adapt=1 / b_bias=10 / direct=1 / weightb=1 / open_gop=0 / weightp=1 / keyint=250 / keyint_min=25 / scenecut=40 / intra_refresh=0 / rc_lookahead=40 / rc=abr / mbtree=1 / bitrate=2600 / ratetol=1.0 / qcomp=0.60 / qpmin=0 / qpmax=69 / qpstep=4 / ip_ratio=1.40 / aq=1:1.00
Default : Да
Forced : Нет
Цветовой диапазон : Limited
Основные цвета : BT.709
Характеристики трансфера : BT.709
Коэффициенты матрицы : BT.709

Аудио
Идентификатор : 2
Формат : AC-3
Формат/Информация : Audio Coding 3
Коммерческое название : Dolby Digital
Идентификатор кодека : A_AC3
Продолжительность : 1 ч. 35 м.
Вид битрейта : Постоянный
Битрейт : 192 Кбит/сек
Каналы : 2 канала
Channel layout : L R
Частота : 48,0 КГц
Частота кадров : 31,250 кадров/сек (1536 SPF)
Битовая глубина : 16 бит
Метод сжатия : С потерями
Размер потока : 131 Мбайт (7%)
Default : Да
Forced : Нет
Скриншоты

 

Вложения

  • 19,4 KB Просмотры: 0
    Личеров 0
    Сидеров 0
    Файлов 1
    Объем 1,8 GB

Привет!

Мы группа людей которые решили помочь другим в решении их проблем, а так же пользователям с поиском самых свежих и качественных инфопродуктов. За 4 с небольшим месяца мы создали этот форум на который заходят ежедневно тысячи человек и посещаемость постоянно растёт. Мы создали панель лицензирования для защиты PHP скриптов от воровства и SEO панель для мониторинга наших сайтов и выбора верной стратегии их развития. Мы надеемся что то что мы создали пригодится Вам и возможно Вы поможете нам развиваться и совершенствоваться вместе с Вами.

Статистика форума

Темы
326.133
Сообщения
344.643
Пользователи
23.038
Новый пользователь
thxrqmu

Приложения форума для iOS и Android


У ркн там нет власти ;)
Гостевуха
Помощь Пользователи
    Captain @ Captain: Батя в здание