Однажды в Америке или Чисто русская сказка (2018) WEBRip от GeneralFilm

Если Вы не хотите скачивать, Вы всегда можете посмотреть онлайн, просто нажмите кнопку ниже :

Открыть плеер

Torrent_Bot

Торрент-Бот
Бот форума
4 Окт 2016
5
1.004
20
#1



Информация о фильме
Оригинальное название: Однажды в Америке или Чисто русская сказка
Год выпуска: 2018
Жанр: Комедия, приключение, фантастика
Выпущено: Россия, ООО Кинокомпания «Задорное кино»
Режиссер: Дмитрий Панченко
В ролях: Михаил Задорнов, Эммануил Виторган, Юрий Гальцев, Михаил Башкатов, Мария Орлова

О фильме: В маленькой стране Аннунакия на престол восходит молодой король — Макбук-102-й. Согласно завещанию отца, Макбук должен взять в гарем юбилейную русскую жену. И так совпало, что как раз в это время по стране гастролирует русский народный ансамбль! В то время, пока молодой король ищет русскую красавицу, президент государства Самая Шибкодемократическая Автономия (сокращенно — С.Ш.А.) планирует во что бы то ни стало сделать Аннунакию демократической страной…

Качество: WEBRip
Видео: XviD build 73, 720x304 (2.35:1), 25.000 fps, 1990 Kbps (0.364 bit/pixel)
Аудио: 48.0 kHz, AC3, 2/0 ch, 192 kbps
Продолжительность: 01:35:00
Перевод: Не требуется
Cубтитры: нет

Скриншоты
MediaInfo
General
Complete name : D:RazdachiV.Amerike.2018.XviD.WEBRip.GeneralFilm.avi
Format : AVI
Format/Info : Audio Video Interleave
File size : 1.45 GiB
Duration : 1 h 35 min
Overall bit rate : 2 191 kb/s
Writing application : VirtualDubMod 1.5.10.3 | www.virtualdub-fr.org || (build 2550/release)
Writing library : VirtualDubMod build 2550/release

Video
ID : 0
Format : MPEG-4 Visual
Format profile : Advanced [email protected]
Format settings, BVOP : 1
Format settings, QPel : No
Format settings, GMC : No warppoints
Format settings, Matrix : Custom
Codec ID : XVID
Codec ID/Hint : XviD
Duration : 1 h 35 min
Bit rate : 1 990 kb/s
Width : 720 pixels
Height : 304 pixels
Display aspect ratio : 2.35:1
Frame rate : 25.000 FPS
Color space : YUV
Chroma subsampling : 4:2:0
Bit depth : 8 bits
Scan type : Progressive
Compression mode : Lossy
Bits/(Pixel*Frame) : 0.364
Stream size : 1.32 GiB (91%)
Writing library : XviD 73

Audio
ID : 1
Format : AC-3
Format/Info : Audio Coding 3
Format settings, Endianness : Big
Codec ID : 2000
Duration : 1 h 35 min
Bit rate mode : Constant
Bit rate : 192 kb/s
Channel(s) : 2 channels
Channel positions : Front: L R
Sampling rate : 48.0 kHz
Frame rate : 31.250 FPS (1536 SPF)
Bit depth : 16 bits
Compression mode : Lossy
Stream size : 130 MiB (9%)
Alignment : Split accross interleaves
Interleave, duration : 40 ms (1.00 video frame)
Interleave, preload duratio : 500 ms
Service kind : Complete Main
Релиз от:
 

Вложения

  • 15,5 KB Просмотры: 0
    Личеров 0
    Сидеров 0
    Файлов 1
    Объем 1,5 GB

Привет!

Мы группа людей которые решили помочь другим в решении их проблем, а так же пользователям с поиском самых свежих и качественных инфопродуктов. За 4 с небольшим месяца мы создали этот форум на который заходят ежедневно тысячи человек и посещаемость постоянно растёт. Мы создали панель лицензирования для защиты PHP скриптов от воровства и SEO панель для мониторинга наших сайтов и выбора верной стратегии их развития. Мы надеемся что то что мы создали пригодится Вам и возможно Вы поможете нам развиваться и совершенствоваться вместе с Вами.

Статистика форума

Темы
324.891
Сообщения
343.165
Пользователи
22.790
Новый пользователь
elegia

Онлайн статистика

Пользователей онлайн
382
Гостей онлайн
4.008
Всего посетителей
4.390

Приложения форума для iOS и Android


У ркн там нет власти ;)
Гостевуха
Помощь Пользователи
    Captain @ Captain: Батя в здание