Огарева, 6 (1980) DVDRip-AVC от KORSAR

Если Вы не хотите скачивать, Вы всегда можете посмотреть онлайн, просто нажмите кнопку ниже :

Открыть плеер

Torrent_Bot

Торрент-Бот
Бот форума
4 Окт 2016
5
1.004
20
#1



Название: Огарева, 6
Год выпуска: 1980
Жанр: Детектив, криминал
Режиссёр: Борис Григорьев
В ролях: Василий Лановой, Георгий Юматов, Евгений Герасимов, Всеволод Кузнецов, Дмитрий Джаияни, Гия Бадридзе, Всеволод Ларионов, Нодар Бекаури, Нодар Мгалоблишвили, Иван Рыжов, Ян Янакиев, Рита Гладунко

Описание: На Пригорской ювелирной фабрике обнаружены крупные хищения социалистической собственности. В Москве совершены два убийства и попытка изнасилования. Казалось бы, что общего между этими преступлениями? Но однажды взаимосвязь проявится - и Костенко срочно вылетит в Сухуми...



Выпущено: СССР / Киностудия им. М. Горького
Продолжительность: 01:23:31
Перевод: не требуется

Качество видео: DVDRip-AVC
Формат видео: MKV
Видео: MPEG-4 AVC, [email protected], 25 fps, 2500 Кбит/с
Звук: AC3, 6 ch, 384 Кбит/с, AC3, 1 ch, 224 Кбит/с



Релиз от:


Инфо файл
x264 [info]: frame I:675 Avg QP:17.22 size: 53099
x264 [info]: frame P:27407 Avg QP:19.01 size: 24584
x264 [info]: frame B:97218 Avg QP:20.76 size: 5352
x264 [info]: consecutive B-frames: 1.5% 2.8% 9.2% 17.5% 24.4% 35.9% 6.0% 1.6% 0.6% 0.3% 0.1%
Общее
Уникальный идентификатор : 248741180730086307912249394106179765165 (0xBB21CF0FF19427E38808B495380BC3AD)
Полное имя : D:Огарёва, 6_1980-DVDRip-AVC_KORSAR.mkv
Формат : Matroska
Версия формата : Version 2
Размер файла : 1,50 Гбайт
Продолжительность : 1 ч. 23 м.
Общий поток : 2573 Кбит/сек
Название фильма : Огарёва, 6_1980-DVDRip-AVC_KORSAR
Дата кодирования : UTC 2018-05-01 18:02:25
Программа кодирования : mkvmerge v5.8.0 ('No Sleep / Pillow') built on Sep 2 2012 15:37:04
Библиотека кодирования : libebml v1.2.3 + libmatroska v1.3.0

Видео
Идентификатор : 1
Формат : AVC
Формат/Информация : Advanced Video Codec
Профиль формата : [email protected]
Параметр CABAC формата : Да
Параметр RefFrames формата : 15 кадров
Идентификатор кодека : V_MPEG4/ISO/AVC
Продолжительность : 1 ч. 23 м.
Битрейт : 1914 Кбит/сек
Ширина : 706 пикселей
Высота : 366 пикселей
Соотношение сторон : 2,060
Соотношение сторон в оригинале : 2,058
Режим частоты кадров : Постоянный
Частота кадров : 25,000 кадров/сек
Цветовое пространство : YUV
Субдискретизация насыщенности : 4:2:0
Битовая глубина : 8 бит
Тип развёртки : Прогрессивная
Бит/(Пиксели*Кадры) : 0.296
Размер потока : 1,12 Гбайт (74%)
Библиотека кодирования : x264 core 152 r2851kMod ba24899
Настройки программы : cabac=1 / ref=15 / deblock=1:-2:-1 / analyse=0x3:0x133 / me=umh / subme=10 / psy=1 / fade_compensate=0.00 / psy_rd=1.05:0.10 / mixed_ref=1 / me_range=40 / chroma_me=1 / trellis=2 / 8x8dct=1 / cqm=0 / deadzone=21,11 / fast_pskip=1 / chroma_qp_offset=-3 / threads=11 / lookahead_threads=2 / sliced_threads=0 / nr=0 / decimate=1 / interlaced=0 / bluray_compat=0 / constrained_intra=0 / bframes=10 / b_pyramid=2 / b_adapt=2 / b_bias=0 / direct=1 / weightb=1 / open_gop=0 / weightp=2 / keyint=250 / keyint_min=25 / scenecut=40 / intra_refresh=0 / rc=crf / mbtree=0 / crf=17.9000 / qcomp=0.63 / qpmin=0 / qpmax=39 / qpstep=4 / ip_ratio=1.40 / pb_ratio=1.30 / aq=2:1.00
Язык : English
Default : Да
Forced : Нет
Цветовой диапазон : Limited
Основные цвета : BT.601 PAL
Характеристики трансфера : BT.470 System B, BT.470 System G
Коэффициенты матрицы : BT.601

Аудио #1
Идентификатор : 2
Формат : AC-3
Формат/Информация : Audio Coding 3
Параметр Endianness формата : Big
Идентификатор кодека : A_AC3
Продолжительность : 1 ч. 23 м.
Вид битрейта : Постоянный
Битрейт : 384 Кбит/сек
Каналы : 6 каналов
Расположение каналов : Front: L C R, Side: L R, LFE
Частота : 48,0 КГц
Частота кадров : 31,250 кадров/сек (1536 SPF)
Битовая глубина : 16 бит
Метод сжатия : С потерями
Размер потока : 229 Мбайт (15%)
Язык : Russian

Default : Да
Forced : Нет

Аудио #2
Идентификатор : 3
Формат : AC-3
Формат/Информация : Audio Coding 3
Параметр Endianness формата : Big
Идентификатор кодека : A_AC3
Продолжительность : 1 ч. 23 м.
Вид битрейта : Постоянный
Битрейт : 224 Кбит/сек
Каналы : 1 канал
Расположение каналов : Front: C
Частота : 48,0 КГц
Частота кадров : 31,250 кадров/сек (1536 SPF)
Битовая глубина : 16 бит
Метод сжатия : С потерями
Размер потока : 134 Мбайт (9%)
Язык : Russian
Default : Нет
Forced : Нет

Текст
Идентификатор : 4
Формат : UTF-8
Идентификатор кодека : S_TEXT/UTF8
Идентификатор кодека/Информация : UTF-8 Plain Text
Язык : Russian
Default : Да
Forced : Нет

Меню
00:00:00.000 : en:Chapter 1
00:05:20.280 : en:Chapter 2
00:12:54.000 : en:Chapter 3
00:20:02.040 : en:Chapter 4
00:28:34.080 : en:Chapter 5
00:38:27.720 : en:Chapter 6
00:46:52.200 : en:Chapter 7
00:54:02.640 : en:Chapter 8
01:01:40.800 : en:Chapter 9
01:07:45.480 : en:Chapter 10
01:14:35.640 : en:Chapter 11
01:19:08.400 : en:Chapter 12
01:23:31.200 : en:Chapter 13
 

Вложения

  • 15,9 KB Просмотры: 0
    Личеров 0
    Сидеров 0
    Файлов 1
    Объем 1,5 GB

Привет!

Мы группа людей которые решили помочь другим в решении их проблем, а так же пользователям с поиском самых свежих и качественных инфопродуктов. За 4 с небольшим месяца мы создали этот форум на который заходят ежедневно тысячи человек и посещаемость постоянно растёт. Мы создали панель лицензирования для защиты PHP скриптов от воровства и SEO панель для мониторинга наших сайтов и выбора верной стратегии их развития. Мы надеемся что то что мы создали пригодится Вам и возможно Вы поможете нам развиваться и совершенствоваться вместе с Вами.

Статистика форума

Темы
324.884
Сообщения
343.128
Пользователи
22.739
Новый пользователь
Vova241

Онлайн статистика

Пользователей онлайн
367
Гостей онлайн
3.603
Всего посетителей
3.970

Приложения форума для iOS и Android


У ркн там нет власти ;)
Гостевуха
Помощь Пользователи
    sntk Chat Bot: sntk присоединился(лась) к комнате.