Огонь, вода и ... медные трубы (1967) DVDRip-AVC от KORSAR

Если Вы не хотите скачивать, Вы всегда можете посмотреть онлайн, просто нажмите кнопку ниже :

Открыть плеер

Torrent_Bot

Торрент-Бот
Бот форума
4 Окт 2016
5
1.004
20
#1


Огонь, вода и ... медные трубы

Год выхода: 1967
Страна: СССР
Выпущено: Центральная киностудия детских и юношеских фильмов им. М. Горького
Жанр:Детский, сказка
Продолжительность: 01:20:58
Перевод: Не требуется
Режиссер: Александр Роу
В ролях: Михаил Пуговкин, Наталья Седых, Алексей Катышев, Георгий Францевич Милляр, Вера Алтайская, Лев Потемкин, Александр Хвыля, Анатолий Кубацкий, Леонид Харитонов, Муза Крепкогорская

О фильме: Герой фильма Вася как-то отправился в лес, чтобы жечь уголь. И там, на полянке, ему повстречалась Аленушка, которая пасла своего козленка. Молодые люди влюбились друг в друга с первого взгляда. Но слуги Кащея Бессмертного похитили девушку прямо на глазах у Васи. В поисках возлюбленной Вася в буквальном смысле проходит сквозь огонь и воду. Но труднее всего устоять перед медными трубами, перед сверкающим сиянием славы…



Кодек: х264
Качество: DVDRip-AVC
Видео: MPEG-4 AVC, 2873 Кбит/с, [email protected], 25 fps
Аудио 1: Русский, AC-3, 48.0 KHz, 6 ch, 448 Кбит/с
Аудио 2: Английский, AC-3, 48.0 KHz, 6 ch, 448 Кбит/с
Субтитры: Нет
Главы: Есть

Скриншоты
Инфо файл
x264 [info]: frame I:764 Avg QP:16.57 size: 66842
x264 [info]: frame P:35995 Avg QP:19.00 size: 27737
x264 [info]: frame B:84701 Avg QP:20.33 size: 8210

Общее
Уникальный идентификатор : 228096321079805577597567971254140660178 (0xAB99C0E5318DA817B398AD89ED83E9D2)
Полное имя : H:СССРОгонь, вода и ... медные трубы 1968_DVDRip-AVC_KORSAR.mkv
Формат : Matroska
Версия формата : Version 2
Размер файла : 2,13 Гбайт
Продолжительность : 1 ч. 20 м.
Общий поток : 3771 Кбит/сек
Дата кодирования : UTC 2018-12-06 17:41:53
Программа кодирования : mkvmerge v5.8.0 ('No Sleep / Pillow') built on Sep 2 2012 15:37:04
Библиотека кодирования : libebml v1.2.3 + libmatroska v1.3.0

Видео
Идентификатор : 1
Формат : AVC
Формат/Информация : Advanced Video Codec
Профиль формата : [email protected]
Настройки формата : CABAC / 14 Ref Frames
Параметр CABAC формата : Да
Параметр RefFrames формата : 14 кадров
Идентификатор кодека : V_MPEG4/ISO/AVC
Продолжительность : 1 ч. 20 м.
Битрейт : 2873 Кбит/сек
Ширина : 696 пикселей
Высота : 390 пикселей
Соотношение сторон : 2,536
Соотношение сторон в оригинале : 2,538
Режим частоты кадров : Постоянный
Частота кадров : 25,000 кадров/сек
Цветовое пространство : YUV
Субдискретизация насыщенности : 4:2:0
Битовая глубина : 8 бит
Тип развёртки : Прогрессивная
Бит/(Пиксели*Кадры) : 0.423
Размер потока : 1,58 Гбайт (74%)
Библиотека кодирования : x264 core 152 r2851kMod ba24899
Настройки программы : cabac=1 / ref=14 / deblock=1:-2:-2 / analyse=0x3:0x133 / me=umh / subme=11 / psy=1 / fade_compensate=0.00 / psy_rd=1.05:0.05 / mixed_ref=1 / me_range=48 / chroma_me=1 / trellis=2 / 8x8dct=1 / cqm=0 / deadzone=21,11 / fast_pskip=0 / chroma_qp_offset=-3 / threads=12 / lookahead_threads=3 / sliced_threads=0 / nr=0 / decimate=0 / interlaced=0 / bluray_compat=0 / constrained_intra=0 / bframes=11 / b_pyramid=2 / b_adapt=2 / b_bias=0 / direct=3 / weightb=1 / open_gop=0 / weightp=2 / keyint=250 / keyint_min=25 / scenecut=40 / intra_refresh=0 / rc_lookahead=40 / rc=2pass / mbtree=0 / bitrate=2873 / ratetol=1.0 / qcomp=0.60 / qpmin=0 / qpmax=39 / qpstep=4 / cplxblur=20.0 / qblur=0.5 / vbv_maxrate=50000 / vbv_bufsize=62500 / nal_hrd=none / filler=0 / ip_ratio=1.25 / pb_ratio=1.30 / aq=1:1.00
Язык : English
Default : Да
Forced : Нет
Цветовой диапазон : Limited
Основные цвета : BT.601 PAL
Характеристики трансфера : BT.470 System B, BT.470 System G
Коэффициенты матрицы : BT.470 System B, BT.470 System G

Аудио #1
Идентификатор : 2
Формат : AC-3
Формат/Информация : Audio Coding 3
Параметр Endianness формата : Big
Идентификатор кодека : A_AC3
Продолжительность : 1 ч. 20 м.
Вид битрейта : Постоянный
Битрейт : 448 Кбит/сек
Каналы : 6 каналов
Расположение каналов : Front: L C R, Side: L R, LFE
Частота : 48,0 КГц
Частота кадров : 31,250 кадров/сек (1536 SPF)
Битовая глубина : 16 бит
Метод сжатия : С потерями
Размер потока : 259 Мбайт (12%)
Язык : Russian
Default : Да
Forced : Нет

Аудио #2
Идентификатор : 3
Формат : AC-3
Формат/Информация : Audio Coding 3
Параметр Endianness формата : Big
Идентификатор кодека : A_AC3
Продолжительность : 1 ч. 20 м.
Вид битрейта : Постоянный
Битрейт : 448 Кбит/сек
Каналы : 6 каналов
Расположение каналов : Front: L C R, Side: L R, LFE
Частота : 48,0 КГц
Частота кадров : 31,250 кадров/сек (1536 SPF)
Битовая глубина : 16 бит
Метод сжатия : С потерями
Размер потока : 259 Мбайт (12%)
Язык : English
Default : Нет
Forced : Нет

Меню
00:00:00.000 : en:Chapter 1
00:11:45.120 : en:Chapter 2
00:19:53.280 : en:Chapter 3
00:27:26.400 : en:Chapter 4
00:35:24.000 : en:Chapter 5
00:38:16.800 : en:Chapter 6
00:46:26.880 : en:Chapter 7
00:51:08.160 : en:Chapter 8
00:52:21.600 : en:Chapter 9
01:00:53.760 : en:Chapter 10
01:07:46.560 : en:Chapter 11
01:16:55.200 : en:Chapter 12

 

Вложения

  • 11,6 KB Просмотры: 0
    Личеров 0
    Сидеров 0
    Файлов 1
    Объем 2,1 GB

Привет!

Мы группа людей которые решили помочь другим в решении их проблем, а так же пользователям с поиском самых свежих и качественных инфопродуктов. За 4 с небольшим месяца мы создали этот форум на который заходят ежедневно тысячи человек и посещаемость постоянно растёт. Мы создали панель лицензирования для защиты PHP скриптов от воровства и SEO панель для мониторинга наших сайтов и выбора верной стратегии их развития. Мы надеемся что то что мы создали пригодится Вам и возможно Вы поможете нам развиваться и совершенствоваться вместе с Вами.

Статистика форума

Темы
326.025
Сообщения
344.502
Пользователи
23.002
Новый пользователь
Vitaloy208621

Приложения форума для iOS и Android


У ркн там нет власти ;)
Гостевуха
Помощь Пользователи
    sntk Chat Bot: sntk покинул(а) комнату.