Отпуск за свой счет (1981) WEBRip 720p от KORSAR

Если Вы не хотите скачивать, Вы всегда можете посмотреть онлайн, просто нажмите кнопку ниже :

Открыть плеер

Torrent_Bot

Торрент-Бот
Бот форума
4 Окт 2016
5
1.004
20
#1







Отпуск за свой счет
Год выпуска: 1981
Жанр: Комедия
Продолжительность: 02:06:57 (01:02:04 + 01:04:53)
Режиссер: Виктор Титов
В ролях: Ольга Мелихова, Игорь Костолевский, Миклош Калочаи, Людмила Гурченко, Елена Романова, Владимир Басов, Марина Стриженова, Элла Некрасова, Александр Ширвиндт, Любовь Полищук, Николай Лебедев, Игорь Ясулович, Иштван Веленцеи, Лия Ахеджакова, Виктория Байза, Ласло Хорешньи, Эржибет Пастор

Описание: Воспитательница детского сада (Мелихова), приезжает из глуши, где идет очередная великая стройка, в Москву в поисках любимого человека (Костолевский), зная только его фамилию и имя. Она находит совершенно ошеломленного таким внезапным появлением Сашу, собирающегося в командировку в Венгрию. У девушки тоже есть туристическая путевка и тоже в в эту заграничную страну. Она добивается отпуска за свой счет, чтобы сроки ее поездки и командировки молодого человека совпали. В конце концов она попадает в Венгрию, где происходит куча смешных происшествий, вызванных наивностью и чистотой симпатичной воспитательницы.

Текст от автора читает Вячеслав Тихонов. В фильме снимался фольклорный ансамбль под руководством Дмитрия Покровского.
Совместное произодство Мосфильма и ТВ Венгрии.



Релиз от:

Качество: WEBRip 720p
Видео: MPEG-4 AVC, 960x720, 25 fps, 7194 Кбит/с
Аудио: AC3, 1 ch, 448 Кбит/с
Язык: Русский

Скриншоты Инфо файл
x264 [info]: frame I:459 Avg QP:18.25 size:143566
x264 [info]: frame P:22517 Avg QP:19.75 size: 77904
x264 [info]: frame B:70146 Avg QP:21.40 size: 22824
x264 [info]: consecutive B-frames: 1.6% 3.1% 6.6% 48.4% 15.5% 23.1% 1.1% 0.4% 0.0% 0.0% 0.0% 0.0% 0.0% 0.0% 0.0% 0.0% 0.0%
Общее
Уникальный идентификатор : 190870632457065829467169363445947242886 (0x8F9858BE672B84C3BFFC77DE722B1986)
Полное имя : D:Отпуск за свой счёт_1981-WEBRip-720p_KORSARОтпуск за свой счёт-1.mkv
Формат : Matroska
Версия формата : Version 2
Размер файла : 3,38 Гбайт
Продолжительность : 1 ч. 2 м.
Общий поток : 7797 Кбит/сек
Название фильма : Отпуск за свой счёт_1981-WEBRip_KORSAR
Дата кодирования : UTC 2018-12-04 14:08:20
Программа кодирования : mkvmerge v5.8.0 ('No Sleep / Pillow') built on Sep 2 2012 15:37:04
Библиотека кодирования : libebml v1.2.3 + libmatroska v1.3.0

Видео
Идентификатор : 1
Формат : AVC
Формат/Информация : Advanced Video Codec
Профиль формата : [email protected]
Параметр CABAC формата : Да
Параметр RefFrames формата : 12 кадров
Идентификатор кодека : V_MPEG4/ISO/AVC
Продолжительность : 1 ч. 2 м.
Битрейт : 7194 Кбит/сек
Ширина : 960 пикселей
Высота : 720 пикселей
Соотношение сторон : 4:3
Режим частоты кадров : Постоянный
Частота кадров : 25,000 кадров/сек
Цветовое пространство : YUV
Субдискретизация насыщенности : 4:2:0
Битовая глубина : 8 бит
Тип развёртки : Прогрессивная
Бит/(Пиксели*Кадры) : 0.416
Размер потока : 3,12 Гбайт (92%)
Библиотека кодирования : x264 core 152 r2851kMod ba24899
Настройки программы : cabac=1 / ref=12 / deblock=1:-2:-2 / analyse=0x3:0x113 / me=umh / subme=10 / psy=1 / fade_compensate=0.00 / psy_rd=1.05:0.10 / mixed_ref=1 / me_range=32 / chroma_me=1 / trellis=2 / 8x8dct=1 / cqm=0 / deadzone=21,11 / fast_pskip=1 / chroma_qp_offset=-3 / threads=12 / lookahead_threads=3 / sliced_threads=0 / nr=0 / decimate=1 / interlaced=0 / bluray_compat=0 / constrained_intra=0 / bframes=16 / b_pyramid=2 / b_adapt=2 / b_bias=0 / direct=1 / weightb=1 / open_gop=0 / weightp=2 / keyint=250 / keyint_min=25 / scenecut=40 / intra_refresh=0 / rc=crf / mbtree=0 / crf=18.3000 / qcomp=0.63 / qpmin=0 / qpmax=45 / qpstep=4 / ip_ratio=1.40 / pb_ratio=1.30 / aq=3:1.00
Язык : English
Default : Да
Forced : Нет
Цветовой диапазон : Limited
Основные цвета : BT.709
Характеристики трансфера : BT.709
Коэффициенты матрицы : BT.709

Аудио
Идентификатор : 2
Формат : AC-3
Формат/Информация : Audio Coding 3
Параметр Endianness формата : Big
Идентификатор кодека : A_AC3
Продолжительность : 1 ч. 2 м.
Вид битрейта : Постоянный
Битрейт : 448 Кбит/сек
Каналы : 1 канал
Расположение каналов : Front: C
Частота : 48,0 КГц
Частота кадров : 31,250 кадров/сек (1536 SPF)
Битовая глубина : 16 бит
Метод сжатия : С потерями
Размер потока : 199 Мбайт (6%)
Язык : Russian

Default : Да
Forced : Нет

Меню
00:00:00.000 : en:Chapter 1
00:04:38.880 : en:Chapter 2
00:13:24.240 : en:Chapter 3
00:17:50.640 : en:Chapter 4
00:24:27.680 : en:Chapter 5
00:34:03.640 : en:Chapter 6
00:42:18.120 : en:Chapter 7
00:46:45.160 : en:Chapter 8
00:56:28.760 : en:Chapter 9
 

Вложения

  • 33,6 KB Просмотры: 0
    Личеров 0
    Сидеров 0
    Файлов 2
    Объем 6,5 GB

Привет!

Мы группа людей которые решили помочь другим в решении их проблем, а так же пользователям с поиском самых свежих и качественных инфопродуктов. За 4 с небольшим месяца мы создали этот форум на который заходят ежедневно тысячи человек и посещаемость постоянно растёт. Мы создали панель лицензирования для защиты PHP скриптов от воровства и SEO панель для мониторинга наших сайтов и выбора верной стратегии их развития. Мы надеемся что то что мы создали пригодится Вам и возможно Вы поможете нам развиваться и совершенствоваться вместе с Вами.

Статистика форума

Темы
326.025
Сообщения
344.504
Пользователи
23.009
Новый пользователь
Tdhda

Приложения форума для iOS и Android


У ркн там нет власти ;)
Гостевуха
Помощь Пользователи
    sntk Chat Bot: sntk покинул(а) комнату.