Охотник за головами / Headhunter (1988) BDRip 1080p от NovaLan | A

Если Вы не хотите скачивать, Вы всегда можете посмотреть онлайн, просто нажмите кнопку ниже :

Открыть плеер

Torrent_Bot

Торрент-Бот
Бот форума
4 Окт 2016
5
1.004
20
#1



Охотник за головами / Headhunter

Страна: США, ЮАР
Студия: Gibraltar Entertainment
Жанр: Ужасы
Год выпуска: 1988
Продолжительность: 01:31:41

Перевод: Авторский одноголосый (Андрей Дольский)
Оригинальная аудиодорожка: английский

Режиссер: Френсис Шеффер / Francis Schaeffer
В ролях: Уэйн Кроуфорд, Кэй Ленц, Стив Кэнэли, Джун Чэдвик, Гордон Малхолланд, Сэм Уильямс, Хелена Криэль, Тед Ле Пла, Джон Баррет

Описание: Полицейские в Майами находят трупы людей с отрезанными головами. Полицейские подозревают, что объявился убийца-маньяк. Но все серьезнее - дело в ритуальных жертвоприношениях, которые в Штаты занесло каким-то ветром из африканской Нигерии...



Тип релиза: BDRip 1080p
Контейнер: MKV
Видео: 1920x1080, 23.976 fps, x264, 11189 kbps
Аудио 1: rus: DD, 2.0, 48 kHz, 192 kbps
Аудио 2: eng: DTS, 768 kb/s, 2.0, 48 kHz, 24 bit

Релиз группа NovaLan
Автор релиза Sergei7721

MediaInfo
Полное имя : D:Headhunter.1988.x264.BDRip.1080p.NovaLan.mkv
Формат : Matroska
Версия формата : Version 4 / Version 2
Размер файла : 7,78 Гбайт
Продолжительность : 1 ч. 31 м.
Общий поток : 12,1 Мбит/сек
Название фильма : Headhunter 1988 - NovaLan
Дата кодирования : UTC 2018-11-17 05:25:10
Программа кодирования : mkvmerge v6.9.1 ('Blue Panther') 64bit built on Apr 18 2014 18:23:38
Библиотека кодирования : libebml v1.3.0 + libmatroska v1.4.1

Видео
Идентификатор : 1
Формат : AVC
Формат/Информация : Advanced Video Codec
Профиль формата : [email protected]
Параметр CABAC формата : Да
Параметр ReFrames формата : 4 кадра
Идентификатор кодека : V_MPEG4/ISO/AVC
Продолжительность : 1 ч. 31 м.
Битрейт : 11,2 Мбит/сек
Ширина : 1920 пикселей
Высота : 1080 пикселей
Соотношение сторон : 16:9
Частота кадров : 23,976 кадра/сек
Цветовое пространство : YUV
Субдискретизация насыщенности : 4:2:0
Битовая глубина : 8 бит
Тип развёртки : Прогрессивная
Бит/(Пиксели*Кадры) : 0.225
Размер потока : 7,02 Гбайт (90%)
Заголовок : Sergei7721
Библиотека кодирования : x264 core 157 r2935 545de2f
Настройки программы : cabac=1 / ref=4 / deblock=1:-1:-1 / analyse=0x3:0x113 / me=umh / subme=11 / psy=1 / psy_rd=1.00:0.20 / mixed_ref=1 / me_range=24 / chroma_me=1 / trellis=2 / 8x8dct=1 / cqm=0 / deadzone=21,11 / fast_pskip=0 / chroma_qp_offset=-3 / threads=18 / lookahead_threads=2 / sliced_threads=0 / nr=0 / decimate=0 / interlaced=0 / bluray_compat=0 / constrained_intra=0 / bframes=6 / b_pyramid=2 / b_adapt=2 / b_bias=0 / direct=3 / weightb=1 / open_gop=0 / weightp=2 / keyint=240 / keyint_min=23 / scenecut=40 / intra_refresh=0 / rc_lookahead=40 / rc=2pass / mbtree=0 / bitrate=11189 / ratetol=1.0 / qcomp=0.60 / qpmin=0 / qpmax=69 / qpstep=4 / cplxblur=20.0 / qblur=0.5 / vbv_maxrate=50000 / vbv_bufsize=62500 / nal_hrd=none / filler=0 / ip_ratio=1.40 / pb_ratio=1.30 / aq=1:1.00
Default : Да
Forced : Нет

Аудио #1
Идентификатор : 2
Формат : AC-3
Формат/Информация : Audio Coding 3
Расширение режима : CM (complete main)
Параметр Endianness формата : Big
Идентификатор кодека : A_AC3
Продолжительность : 1 ч. 31 м.
Вид битрейта : Постоянный
Битрейт : 192 Кбит/сек
Каналы : 2 канала
Расположение каналов : Front: L R
Частота : 48,0 КГц
Битовая глубина : 16 бит
Метод сжатия : С потерями
Размер потока : 126 Мбайт (2%)
Язык : Russian
Default : Да
Forced : Нет

Аудио #2
Идентификатор : 3
Формат : DTS
Формат/Информация : Digital Theater Systems
Идентификатор кодека : A_DTS
Продолжительность : 1 ч. 31 м.
Вид битрейта : Постоянный
Битрейт : 755 Кбит/сек
Каналы : 2 канала
Расположение каналов : Front: L R
Частота : 48,0 КГц
Битовая глубина : 24 бит
Метод сжатия : С потерями
Размер потока : 495 Мбайт (6%)
Язык : English
Default : Нет
Forced : Нет

Меню
00:00:00.000 : en:00:00:00.000
00:03:05.602 : en:00:03:05.602
00:09:54.510 : en:00:09:54.510
00:15:56.622 : en:00:15:56.622
00:19:42.347 : en:00:19:42.347
00:26:55.864 : en:00:26:55.864
00:31:43.443 : en:00:31:43.443
00:36:38.446 : en:00:36:38.446
00:42:19.119 : en:00:42:19.119
00:47:42.693 : en:00:47:42.693
00:57:59.350 : en:00:57:59.350
01:05:16.412 : en:01:05:16.412
01:13:36.995 : en:01:13:36.995
01:21:27.299 : en:01:21:27.299
01:27:02.550 : en:01:27:02.550
01:29:55.431 : en:01:29:55.431
01:31:41.496 : en:01:31:41.496
Скриншоты Дополнительно
исходный диск Headhunter Blu-ray
Релиз от:
 

Вложения

  • 39,8 KB Просмотры: 0
    Личеров 0
    Сидеров 0
    Файлов 1
    Объем 7,8 GB

Похожие темы

Привет!

Мы группа людей которые решили помочь другим в решении их проблем, а так же пользователям с поиском самых свежих и качественных инфопродуктов. За 4 с небольшим месяца мы создали этот форум на который заходят ежедневно тысячи человек и посещаемость постоянно растёт. Мы создали панель лицензирования для защиты PHP скриптов от воровства и SEO панель для мониторинга наших сайтов и выбора верной стратегии их развития. Мы надеемся что то что мы создали пригодится Вам и возможно Вы поможете нам развиваться и совершенствоваться вместе с Вами.

Статистика форума

Темы
324.994
Сообщения
343.394
Пользователи
22.931
Новый пользователь
187cult

Приложения форума для iOS и Android


У ркн там нет власти ;)
Гостевуха
Помощь Пользователи
    sntk Chat Bot: sntk покинул(а) комнату.