Песня зовёт (1961) SATRip от New-Team

Если Вы не хотите скачивать, Вы всегда можете посмотреть онлайн, просто нажмите кнопку ниже :

Открыть плеер

Torrent_Bot

Торрент-Бот
Бот форума
4 Окт 2016
5
1.004
20
#1
Страна: СССР
Производство: Казахфильм

Жанр: мюзикл
Год выпуска: 1961
Продолжительность: 01:24:14

Перевод: Не требуется
Cубтитры: нет
Оригинальная аудиодорожка: русский

Режиссер: Шакен Айманов

В ролях:
Раиса Мухамедьярова, Муслим Абдуллин, Асанали Ашимов, Ермек Серкебаев, Танат Жайлибеков, Сайфулла Тельгараев, Рахия Койчубаева...
Об актёрах подробней

Описание:
На речной переправе застревает "Волга" знаменитого певца Досая Нурланова, спешащего на концерт в Кзыл-Ту. Машину берет на буксир грузовик девушки-шофера Айгуль, которая привозит певца в свой аул. Нурланов попадает на празднование 75-летия старейшего колхозника Жаке. Он восхищается талантами "поющего аула" и обещает возглавить здешний народный хор.





Исходник: DVB
Качество видео: SATRip
Формат видео: AVI

Видео: 720x496 (3:2), 25,000 кадров/сек, XviD ~ 1651 kbps avg, 0.185 bit/pixel
Аудио: 48 kHz, Dolby Digital AC3 2.0, 192 kbps

Раздача от:

MediaInfo
Общее
Полное имя : Pesnya.zovyot.1961.SATRip_[New-team]_by_AVP_Studio.avi
Формат : AVI
Формат/Информация : Audio Video Interleave
Размер файла : 1,09 Гбайт
Продолжительность : 1 ч. 24 м.
Общий поток : 1853 Кбит/сек
Программа кодирования : VirtualDubMod 1.5.10.3 | www.virtualdub-fr.org || (build 2550/release)
Библиотека кодирования : VirtualDubMod build 2550/release

Видео
Идентификатор : 0
Формат : MPEG-4 Visual
Профиль формата : Advanced [email protected]
Настройки формата : BVOP1 / Custom Matrix
Параметр BVOP формата : 1
Параметр QPel формата : Нет
Параметр GMC формата : Без точки перехода
Параметр матрицы формата : Выборочная
Идентификатор кодека : XVID
Идентификатор кодека/Подсказка : XviD
Продолжительность : 1 ч. 24 м.
Битрейт : 1651 Кбит/сек
Ширина : 720 пикселей
Высота : 496 пикселей
Соотношение сторон : 3:2
Частота кадров : 25,000 кадров/сек
Цветовое пространство : YUV
Субдискретизация насыщенности : 4:2:0
Битовая глубина : 8 бит
Тип развёртки : Прогрессивная
Метод сжатия : С потерями
Бит/(Пиксели*Кадры) : 0.185
Размер потока : 995 Мбайт (89%)
Библиотека кодирования : XviD 73

Аудио
Идентификатор : 1
Формат : AC-3
Формат/Информация : Audio Coding 3
Коммерческое название : Dolby Digital
Идентификатор кодека : 2000
Продолжительность : 1 ч. 24 м.
Вид битрейта : Постоянный
Битрейт : 192 Кбит/сек
Каналы : 2 канала
Channel layout : L R
Частота : 48,0 КГц
Частота кадров : 31,250 кадров/сек (1536 SPF)
Битовая глубина : 16 бит
Метод сжатия : С потерями
Размер потока : 116 Мбайт (10%)
Выравнивание : Разделение по промежуткам
Продолжительность промежутка : 40 мс. (1,00 видеокадр)
Время предзагрузки промежутка : 500 мс
Скриншоты
 

Вложения

  • 12,4 KB Просмотры: 0
    Личеров 0
    Сидеров 0
    Файлов 1
    Объем 1,1 GB

Привет!

Мы группа людей которые решили помочь другим в решении их проблем, а так же пользователям с поиском самых свежих и качественных инфопродуктов. За 4 с небольшим месяца мы создали этот форум на который заходят ежедневно тысячи человек и посещаемость постоянно растёт. Мы создали панель лицензирования для защиты PHP скриптов от воровства и SEO панель для мониторинга наших сайтов и выбора верной стратегии их развития. Мы надеемся что то что мы создали пригодится Вам и возможно Вы поможете нам развиваться и совершенствоваться вместе с Вами.

Статистика форума

Темы
324.971
Сообщения
343.296
Пользователи
22.849
Новый пользователь
АндрейЕ

Онлайн статистика

Пользователей онлайн
33
Гостей онлайн
226
Всего посетителей
259

Приложения форума для iOS и Android


У ркн там нет власти ;)
Гостевуха
Помощь Пользователи
    sntk Chat Bot: sntk покинул(а) комнату.