Петровка, 38 (1980) DVDRip-AVC от KORSAR

Если Вы не хотите скачивать, Вы всегда можете посмотреть онлайн, просто нажмите кнопку ниже :

Открыть плеер

Torrent_Bot

Торрент-Бот
Бот форума
4 Окт 2016
5
1.004
20
#1





Название: Петровка, 38
Год выпуска: 1980
Жанр: Детектив, криминал
Режиссёр: Борис Григорьев
В ролях: Георгий Юматов, Василий Лановой, Евгений Герасимов, Людмила Нильская, Михаил Жигалов, Александр Никифоров, Николай Еременко-ст., Григорий Лямпе, Саша Егоров, Юрий Волков, Николай Крюков, Герман Качин, Вацлав Дворжецкий

Описание: Знаменитый фильм о нелегкой работе сотрудников Московского уголовного розыска, благодаря которому люди знали, что «Петровка, 38» - это не только детектив, но и адрес МУРа.
Полковник Садчиков, майор Костенко и старший лейтенант Росляков расследуют серию дерзких ограблений.
Выясняется, что в последнем преступлении участвовал подросток, который вскоре сам пришел на Петрову, 38 с повинной.
С его помощью были задержаны бандиты, готовящие очередной налет. Но главарь банды все еще оставался на свободе…



Выпущено: СССР / Мосфильм
Продолжительность: 01:23:12
Перевод: не требуется

Качество видео: DVDRip-AVC
Формат видео: MKV
Видео: MPEG-4 AVC, [email protected], 25 fps, 2322 kbps
Звук: AC3, 6 ch, 384 Кбит/с, AC3, 1 ch, 224 Кбит/с

Релиз от:




Инфо файл
x264 [info]: frame I:681 Avg QP:17.54 size: 51366
x264 [info]: frame P:28012 Avg QP:19.13 size: 28692
x264 [info]: frame B:96115 Avg QP:21.06 size: 6726
Общее
Уникальный идентификатор : 252686584496686925992385198310813772141 (0xBE19AA7C883DE0B19D483DA59DC2A96D)
Полное имя : D:Петровка, 38_1980-DVDRip-AVC_KORSAR.mkv
Формат : Matroska
Версия формата : Version 2
Размер файла : 1,74 Гбайт
Продолжительность : 1 ч. 23 м.
Общий поток : 2990 Кбит/сек
Название фильма : Петровка, 38_1980-DVDRip-AVC_KORSAR
Дата кодирования : UTC 2018-05-01 12:18:24
Программа кодирования : mkvmerge v5.8.0 ('No Sleep / Pillow') built on Sep 2 2012 15:37:04
Библиотека кодирования : libebml v1.2.3 + libmatroska v1.3.0

Видео
Идентификатор : 1
Формат : AVC
Формат/Информация : Advanced Video Codec
Профиль формата : [email protected]
Параметр CABAC формата : Да
Параметр RefFrames формата : 15 кадров
Идентификатор кодека : V_MPEG4/ISO/AVC
Продолжительность : 1 ч. 23 м.
Битрейт : 2322 Кбит/сек
Ширина : 704 пикселя
Высота : 368 пикселей
Соотношение сторон : 2,038
Соотношение сторон в оригинале : 2,041
Режим частоты кадров : Постоянный
Частота кадров : 25,000 кадров/сек
Цветовое пространство : YUV
Субдискретизация насыщенности : 4:2:0
Битовая глубина : 8 бит
Тип развёртки : Прогрессивная
Бит/(Пиксели*Кадры) : 0.359
Размер потока : 1,35 Гбайт (78%)
Библиотека кодирования : x264 core 152 r2851kMod ba24899
Настройки программы : cabac=1 / ref=15 / deblock=1:-2:-1 / analyse=0x3:0x133 / me=umh / subme=10 / psy=1 / fade_compensate=0.00 / psy_rd=1.05:0.10 / mixed_ref=1 / me_range=40 / chroma_me=1 / trellis=2 / 8x8dct=1 / cqm=0 / deadzone=21,11 / fast_pskip=1 / chroma_qp_offset=-3 / threads=11 / lookahead_threads=2 / sliced_threads=0 / nr=0 / decimate=1 / interlaced=0 / bluray_compat=0 / constrained_intra=0 / bframes=10 / b_pyramid=2 / b_adapt=2 / b_bias=0 / direct=1 / weightb=1 / open_gop=0 / weightp=2 / keyint=250 / keyint_min=25 / scenecut=40 / intra_refresh=0 / rc=crf / mbtree=0 / crf=18.0000 / qcomp=0.63 / qpmin=0 / qpmax=39 / qpstep=4 / ip_ratio=1.40 / pb_ratio=1.30 / aq=2:0.90
Язык : English
Default : Да
Forced : Нет
Цветовой диапазон : Limited
Основные цвета : BT.601 PAL
Характеристики трансфера : BT.470 System B, BT.470 System G
Коэффициенты матрицы : BT.601

Аудио #1
Идентификатор : 2
Формат : AC-3
Формат/Информация : Audio Coding 3
Параметр Endianness формата : Big
Идентификатор кодека : A_AC3
Продолжительность : 1 ч. 23 м.
Вид битрейта : Постоянный
Битрейт : 384 Кбит/сек
Каналы : 6 каналов
Расположение каналов : Front: L C R, Side: L R, LFE
Частота : 48,0 КГц
Частота кадров : 31,250 кадров/сек (1536 SPF)
Битовая глубина : 16 бит
Метод сжатия : С потерями
Размер потока : 229 Мбайт (13%)
Язык : Russian
Default : Да
Forced : Нет

Аудио #2
Идентификатор : 3
Формат : AC-3
Формат/Информация : Audio Coding 3
Параметр Endianness формата : Big
Идентификатор кодека : A_AC3
Продолжительность : 1 ч. 23 м.
Вид битрейта : Постоянный
Битрейт : 224 Кбит/сек
Каналы : 1 канал
Расположение каналов : Front: C
Частота : 48,0 КГц
Частота кадров : 31,250 кадров/сек (1536 SPF)
Битовая глубина : 16 бит
Метод сжатия : С потерями
Размер потока : 133 Мбайт (7%)
Язык : Russian
Default : Нет
Forced : Нет

Текст
Идентификатор : 4
Формат : UTF-8
Идентификатор кодека : S_TEXT/UTF8
Идентификатор кодека/Информация : UTF-8 Plain Text
Язык : Russian
Default : Да
Forced : Нет

Меню
00:00:00.000 : en:Chapter 1
00:05:53.520 : en:Chapter 2
00:12:00.480 : en:Chapter 3
00:21:16.320 : en:Chapter 4
00:29:39.120 : en:Chapter 5
00:38:15.120 : en:Chapter 6
00:46:59.400 : en:Chapter 7
00:55:13.440 : en:Chapter 8
01:01:04.440 : en:Chapter 9
01:06:11.160 : en:Chapter 10
01:14:17.520 : en:Chapter 11
01:18:37.920 : en:Chapter 12
01:23:11.880
 

Вложения

  • 18,3 KB Просмотры: 0
    Личеров 0
    Сидеров 0
    Файлов 1
    Объем 1,7 GB

Привет!

Мы группа людей которые решили помочь другим в решении их проблем, а так же пользователям с поиском самых свежих и качественных инфопродуктов. За 4 с небольшим месяца мы создали этот форум на который заходят ежедневно тысячи человек и посещаемость постоянно растёт. Мы создали панель лицензирования для защиты PHP скриптов от воровства и SEO панель для мониторинга наших сайтов и выбора верной стратегии их развития. Мы надеемся что то что мы создали пригодится Вам и возможно Вы поможете нам развиваться и совершенствоваться вместе с Вами.

Статистика форума

Темы
324.884
Сообщения
343.128
Пользователи
22.739
Новый пользователь
Vova241

Онлайн статистика

Пользователей онлайн
367
Гостей онлайн
3.605
Всего посетителей
3.972

Приложения форума для iOS и Android


У ркн там нет власти ;)
Гостевуха
Помощь Пользователи
    sntk Chat Bot: sntk присоединился(лась) к комнате.