Подранки (1976) WEBRip-AVC

Если Вы не хотите скачивать, Вы всегда можете посмотреть онлайн, просто нажмите кнопку ниже :

Открыть плеер

Torrent_Bot

Торрент-Бот
Бот форума
4 Окт 2016
5
1.004
20
#1
Информация о фильме
Жанр: Драма
Год выпуска: 1976
Режиссер: Николай Губенко
Актеры: Юозас Будрайтис, Георгий Бурков, Александр Калягин, Алексей Черствов, Бухути Закариадзе, Жанна Болотова, Ролан Быков, Евгений Евстигнеев, Николай Губенко, Наталья Гундарева и др.

Описание:
Один из лучших фильмов советского кино - трагедия беспризорного послевоенного детства. Это рассказ писателя Алексея Бертенева, разыскивающего своих братьев. Всех их в детские годы разметала по жизни война. Один был усыновлён состоятельными и благополучными людьми и сам вырос в состоятельного благополучного архитектора. Другой стал вором-рецидивистом. Сестра, после гибели на фронте отца и самоубийства матери, до четырнадцати лет заботилась о самом младшем в семье ребёнке - о рассказчике. Они вместе голодали и воровали пропитание. Потом она умерла. А Алексею повезло - он попал в подмосковный детский дом, расположенный в старинном имении. И там, в окружении искалеченных войной детей и не менее искалеченных войной педагогов, формировался как личность. Встречаясь с братьями - по существу, чужими людьми - герой всё сильнее ощущает одиночество, а зритель понимает, что именно это одиночество и есть главная трагедия человека и человечества...



Выпущено: СССР
Продолжительность: 01:28:09
Перевод: не требуется

Файл
Контейнер: MKV
Качество видео: WEBRip-AVC
Видео: AVC/H.264, 920x600 (3:2), ~2000 Kbps, 25.00 fps
Аудио: AC3, 48.0 kHz, 2 ch, 224 kbps

M/I
General
Unique ID : 55866202941598179686446226407277484762 (0x2A077076C7C2F0585472596435045ADA)
Complete name : D:podranki_1976_WEBRip_AVC.mkv
Format : Matroska
Format version : Version 4 / Version 2
File size : 1.37 GiB
Duration : 1 h 28 min
Overall bit rate mode : Constant
Overall bit rate : 2 228 kb/s
Encoded date : UTC 2017-12-09 17:50:03
Writing application : Lavf57.71.100
Writing library : Lavf57.71.100
ErrorDetectionType : Per level 1

Video
ID : 1
Format : AVC
Format/Info : Advanced Video Codec
Format profile : [email protected]
Format settings, CABAC : Yes
Format settings, ReFrames : 1 frame
Format settings, GOP : M=1, N=25
Codec ID : V_MPEG4/ISO/AVC
Duration : 1 h 28 min
Bit rate mode : Constant
Bit rate : 2 000 kb/s
Width : 920 pixels
Height : 600 pixels
Display aspect ratio : 3:2
Frame rate mode : Constant
Frame rate : 25.000 FPS
Color space : YUV
Chroma subsampling : 4:2:0
Bit depth : 8 bits
Scan type : Progressive
Bits/(Pixel*Frame) : 0.145
Stream size : 1.21 GiB (88%)
Language : English
Default : Yes
Forced : No
DURATION : 01:28:09.560000000

Audio
ID : 2
Format : AC-3
Format/Info : Audio Coding 3
Format settings, Endianness : Big
Codec ID : A_AC3
Duration : 1 h 28 min
Bit rate mode : Constant
Bit rate : 224 kb/s
Channel(s) : 2 channels
Channel positions : Front: L R
Sampling rate : 48.0 kHz
Frame rate : 31.250 FPS (1536 spf)
Bit depth : 16 bits
Compression mode : Lossy
Stream size : 141 MiB (10%)
Service kind : Complete Main
Default : Yes
Forced : No
DURATION : 01:28:09.600000000
Скриншоты
 

Вложения

  • 14,6 KB Просмотры: 0
    Личеров 0
    Сидеров 0
    Файлов 1
    Объем 1,4 GB

Привет!

Мы группа людей которые решили помочь другим в решении их проблем, а так же пользователям с поиском самых свежих и качественных инфопродуктов. За 4 с небольшим месяца мы создали этот форум на который заходят ежедневно тысячи человек и посещаемость постоянно растёт. Мы создали панель лицензирования для защиты PHP скриптов от воровства и SEO панель для мониторинга наших сайтов и выбора верной стратегии их развития. Мы надеемся что то что мы создали пригодится Вам и возможно Вы поможете нам развиваться и совершенствоваться вместе с Вами.

Статистика форума

Темы
324.971
Сообщения
343.296
Пользователи
22.849
Новый пользователь
АндрейЕ

Онлайн статистика

Пользователей онлайн
33
Гостей онлайн
226
Всего посетителей
259

Приложения форума для iOS и Android


У ркн там нет власти ;)
Гостевуха
Помощь Пользователи
    sntk Chat Bot: sntk покинул(а) комнату.