Привал странников (1991) DVDRip-AVC от KORSAR

Если Вы не хотите скачивать, Вы всегда можете посмотреть онлайн, просто нажмите кнопку ниже :

Открыть плеер

Torrent_Bot

Торрент-Бот
Бот форума
4 Окт 2016
5
1.004
20
#1







Привал странников
Год выпуска: 1991
Страна: СССР
Жанр: Детектив
Продолжительность: 01:12:05 + 01:04:40
Режиссер: Александр Бланк
В ролях: Юрий Стосков, Игорь Богодух, Георгий Кавтарадзе, Алексей Симановский, Юрий Соломин, Михаил Волков, Сергей Проханов, Анатолий Равикович, Сергей Яковлев, Александр Бордуков, Владимир Борисов, Павел Белозеров, Валерия Устинова, Сергей Балабанов

Описание: Лето 1990 года. Полковник МУРа в отставке Александр Иванович Смирнов приезжает в Москву похлопотать за пенсию.
Остановившись у своих друзей Романа Казаряна и Альки Спиридонова они отправляются в новый ресторан "Привал странников", открывшийся совсем недавно, чтобы отметить приезд товарища.
На следующий день ресторан, в котором отставной полковник милиции Смирнов вместе с давнишними друзьями побывал накануне, исчез... После того, как он успевает поговорить с участковым Трындиным, тот погибает. И тогда Смирнов самостоятельно берется за расследование загадочного происшествия.

Релиз от:

Качество: DVDRip (AVC)
Видео: MPEG-4 AVC, [email protected], 25 fps, 2510 Кбит/с
Аудио: AC3, 2 ch, 192 Кбит/с
Язык: Русский



Инфо файл

  • x264 [info]: frame I:1065 Avg QP:17.77 size: 73294
    x264 [info]: frame P:48358 Avg QP:19.64 size: 33496
    x264 [info]: frame B:155730 Avg QP:21.60 size: 5983
    x264 [info]: consecutive B-frames: 2.7% 3.2% 10.2% 21.1% 22.5% 38.3% 1.6% 0.3% 0.1%
Общее
Уникальный идентификатор : 231481148921256098166365789539921267050 (0xAE25A5CADFBB3D9B880AF34A71A7896A)
Полное имя : D:Привал странников_1991-DVDRip-AVC_KORSAR.mkv
Формат : Matroska
Версия формата : Version 2
Размер файла : 2,63 Гбайт
Продолжительность : 2 ч. 16 м.
Общий поток : 2757 Кбит/сек
Дата кодирования : UTC 2018-12-09 22:21:26
Программа кодирования : mkvmerge v5.8.0 ('No Sleep / Pillow') built on Sep 2 2012 15:37:04
Библиотека кодирования : libebml v1.2.3 + libmatroska v1.3.0

Видео
Идентификатор : 1
Формат : AVC
Формат/Информация : Advanced Video Codec
Профиль формата : [email protected]
Параметр CABAC формата : Да
Параметр ReFrames формата : 12 кадров
Идентификатор кодека : V_MPEG4/ISO/AVC
Продолжительность : 2 ч. 16 м.
Битрейт : 2510 Кбит/сек
Ширина : 690 пикселей
Высота : 574 пикселя
Соотношение сторон : 1,282
Режим частоты кадров : Постоянный
Частота кадров : 25,000 кадров/сек
Цветовое пространство : YUV
Субдискретизация насыщенности : 4:2:0
Битовая глубина : 8 бит
Тип развёртки : Прогрессивная
Бит/(Пиксели*Кадры) : 0.254
Размер потока : 2,40 Гбайт (91%)
Библиотека кодирования : x264 core 152 r2851kMod ba24899
Настройки программы : cabac=1 / ref=12 / deblock=1:-2:-1 / analyse=0x3:0x133 / me=umh / subme=10 / psy=1 / fade_compensate=0.00 / psy_rd=1.05:0.10 / mixed_ref=1 / me_range=32 / chroma_me=1 / trellis=2 / 8x8dct=1 / cqm=0 / deadzone=21,11 / fast_pskip=1 / chroma_qp_offset=-3 / threads=12 / lookahead_threads=2 / sliced_threads=0 / nr=0 / decimate=1 / interlaced=0 / bluray_compat=0 / constrained_intra=0 / bframes=8 / b_pyramid=2 / b_adapt=2 / b_bias=0 / direct=1 / weightb=1 / open_gop=0 / weightp=2 / keyint=250 / keyint_min=25 / scenecut=40 / intra_refresh=0 / rc=crf / mbtree=0 / crf=18.0000 / qcomp=0.63 / qpmin=0 / qpmax=45 / qpstep=4 / ip_ratio=1.40 / pb_ratio=1.30 / aq=1:1.00
Язык : English
Default : Да
Forced : Нет
Основные цвета : BT.601 PAL
Характеристики трансфера : BT.470 System B, BT.470 System G
Коэффициенты матрицы : BT.601

Аудио
Идентификатор : 2
Формат : AC-3
Формат/Информация : Audio Coding 3
Расширение режима : CM (complete main)
Параметр Endianness формата : Big
Идентификатор кодека : A_AC3
Продолжительность : 2 ч. 16 м.
Вид битрейта : Постоянный
Битрейт : 192 Кбит/сек
Каналы : 2 канала
Расположение каналов : Front: L R
Частота : 48,0 КГц
Битовая глубина : 16 бит
Метод сжатия : С потерями
Размер потока : 188 Мбайт (7%)
Язык : Russian
Default : Да
Forced : Нет

Меню
00:00:00.000 : en:Chapter 1
00:10:13.000 : en:Chapter 2
00:18:50.680 : en:Chapter 3
00:29:35.920 : en:Chapter 4
00:43:19.120 : en:Chapter 5
00:55:37.720 : en:Chapter 6
01:04:54.040 : en:Chapter 7
01:13:44.360 : en:Chapter 8
01:24:26.720 : en:Chapter 9
01:37:27.320 : en:Chapter 10
01:51:08.480 : en:Chapter 11
02:04:26.600 : en:Chapter 12
 

Вложения

  • 14,1 KB Просмотры: 0
    Личеров 0
    Сидеров 0
    Файлов 1
    Объем 2,6 GB

Привет!

Мы группа людей которые решили помочь другим в решении их проблем, а так же пользователям с поиском самых свежих и качественных инфопродуктов. За 4 с небольшим месяца мы создали этот форум на который заходят ежедневно тысячи человек и посещаемость постоянно растёт. Мы создали панель лицензирования для защиты PHP скриптов от воровства и SEO панель для мониторинга наших сайтов и выбора верной стратегии их развития. Мы надеемся что то что мы создали пригодится Вам и возможно Вы поможете нам развиваться и совершенствоваться вместе с Вами.

Статистика форума

Темы
324.972
Сообщения
343.312
Пользователи
22.855
Новый пользователь
Gosha

Онлайн статистика

Пользователей онлайн
30
Гостей онлайн
210
Всего посетителей
240

Приложения форума для iOS и Android


У ркн там нет власти ;)
Гостевуха
Помощь Пользователи
    sntk Chat Bot: sntk покинул(а) комнату.