Проклятье монахини / Curse of the Nun (2018) WEBRip-AVC | LakeFilms

Если Вы не хотите скачивать, Вы всегда можете посмотреть онлайн, просто нажмите кнопку ниже :

Открыть плеер

Torrent_Bot

Торрент-Бот
Бот форума
4 Окт 2016
5
1.004
20
#1



Название: Проклятье монахини
Оригинальное название: Curse of the Nun
Год выпуска: 2018
Жанр:Ужасы
Выпущено: США, High Octane Pictures
Режиссер: Аарон Миртес
В ролях: Лейси Хартсел, Джонатан Эверетт, Шеннон Хант, Кейт Килкойн, Аарон Миртес, Элис Рэвер, Майкл Т. Флинн, Брэд Белемджян

О фильме: Молодая девушка с радостью ждёт переезда в прекрасный новый дом, но дух сошедшей с ума монахини не хочет отпускать её из старого.



Техданные
Качество: WEBRip-AVC
Видео: MPEG-4 AVC, 2 059 Kb/s, 720x304, 24.000 FPS
Аудио: AAC, 2 ch, 192 Кбит/с
Продолжительность: 01:20:28
Перевод: Любительский двухголосый закадровый (LakeFilms)
Присутствует реклама!

Скриншоты
MI
General
Unique ID : 306162449146713058027141445696052364023 (0xE654BE2C74F94AE20E1211C3850182F7)
Complete name : D:новоеCurse of the Nun.2018.WEBRip.SD.LakeFilms.mkv
Format : Matroska
Format version : Version 4
File size : 1.27 GiB
Duration : 1 h 20 min
Overall bit rate : 2 251 kb/s
Encoded date : UTC 2018-12-24 10:44:06
Writing application : mkvmerge v29.0.0 ('Like It Or Not') 64-bit
Writing library : libebml v1.3.6 + libmatroska v1.4.9

Video
ID : 1
Format : AVC
Format/Info : Advanced Video Codec
Format profile : [email protected]
Format settings : CABAC / 4 Ref Frames
Format settings, CABAC : Yes
Format settings, ReFrames : 4 frames
Codec ID : V_MPEG4/ISO/AVC
Duration : 1 h 20 min
Bit rate : 2 059 kb/s
Width : 720 pixels
Height : 304 pixels
Display aspect ratio : 2.35:1
Frame rate mode : Constant
Frame rate : 23.976 (24000/1001) FPS
Standard : NTSC
Color space : YUV
Chroma subsampling : 4:2:0
Bit depth : 8 bits
Scan type : Progressive
Bits/(Pixel*Frame) : 0.392
Stream size : 1.16 GiB (91%)
Language : English
Default : Yes
Forced : No
Color range : Limited
Color primaries : BT.601 NTSC
Transfer characteristics : BT.601
Matrix coefficients : BT.601

Audio
ID : 2
Format : AAC LC
Format/Info : Advanced Audio Codec Low Complexity
Codec ID : A_AAC-2
Duration : 1 h 20 min
Bit rate : 192 kb/s
Channel(s) : 2 channels
Channel layout : L R
Sampling rate : 48.0 kHz
Frame rate : 46.875 FPS (1024 SPF)
Compression mode : Lossy
Stream size : 109 MiB (8%)
Language : English
Default : Yes
Forced : No
 

Вложения

  • 13,6 KB Просмотры: 0
    Личеров 0
    Сидеров 0
    Файлов 1
    Объем 1,3 GB

Похожие темы

Привет!

Мы группа людей которые решили помочь другим в решении их проблем, а так же пользователям с поиском самых свежих и качественных инфопродуктов. За 4 с небольшим месяца мы создали этот форум на который заходят ежедневно тысячи человек и посещаемость постоянно растёт. Мы создали панель лицензирования для защиты PHP скриптов от воровства и SEO панель для мониторинга наших сайтов и выбора верной стратегии их развития. Мы надеемся что то что мы создали пригодится Вам и возможно Вы поможете нам развиваться и совершенствоваться вместе с Вами.

Статистика форума

Темы
324.994
Сообщения
343.390
Пользователи
22.930
Новый пользователь
Zilberschucher

Приложения форума для iOS и Android


У ркн там нет власти ;)
Гостевуха
Помощь Пользователи
    sntk Chat Bot: sntk покинул(а) комнату.