Ринг (1973) SATRip-AVC от KORSAR

Если Вы не хотите скачивать, Вы всегда можете посмотреть онлайн, просто нажмите кнопку ниже :

Открыть плеер

Torrent_Bot

Торрент-Бот
Бот форума
4 Окт 2016
5
1.004
20
#1
Жанр: детектив, спорт
Год выпуска: 1973
Страна: СССР
Продолжительность: 01:30:59
Режиссёр: Виллен Новак
В ролях: Александр Пороховщиков, Майя Булгакова, Николай Гринько, Евгений Лебедев, Галина Польских, Дмитрий Франько, Георгий Дрозд, Вячеслав Жариков, Юрий Родионов, Владимир Волков

Описание: Расследование дела об убийстве инкассатора поручили бывшему чемпиону по боксу майору Исаеву, который быстро сообразил, что убийца — боксер.

Релиз от:

Кодек: х264
Качество: SATRip-AVC
Видео: MPEG-4 AVC, [email protected], 25 fps, 1294 Кбит/с
Звук: AC3, 2 ch, 192 Кбит/с

Скриншоты
Инфо файл

  • x264 [info]: frame I:690 Avg QP:15.41 size: 48797
    x264 [info]: frame P:36514 Avg QP:19.03 size: 16212
    x264 [info]: frame B:98525 Avg QP:21.77 size: 2759
Общее
Уникальный идентификатор : 170699218058709457726253305085106684912 (0x806B793ADA5E2201A489ADAD17CD83F0)
Полное имя : D:Ринг_1973-SATRip-AVC_KORSAR.mkv
Формат : Matroska
Версия формата : Version 2
Размер файла : 981 Мбайт
Продолжительность : 1 ч. 30 м.
Общий поток : 1516 Кбит/сек
Название фильма : Ринг_1973-SATRip-AVC_KORSAR
Дата кодирования : UTC 2018-03-05 08:52:48
Программа кодирования : mkvmerge v5.8.0 ('No Sleep / Pillow') built on Sep 2 2012 15:37:04
Библиотека кодирования : libebml v1.2.3 + libmatroska v1.3.0

Видео
Идентификатор : 1
Формат : AVC
Формат/Информация : Advanced Video Codec
Профиль формата : [email protected]
Параметр CABAC формата : Да
Параметр RefFrames формата : 16 кадров
Идентификатор кодека : V_MPEG4/ISO/AVC
Продолжительность : 1 ч. 30 м.
Битрейт : 1294 Кбит/сек
Ширина : 700 пикселей
Высота : 416 пикселей
Соотношение сторон : 2,005
Режим частоты кадров : Постоянный
Частота кадров : 25,000 кадров/сек
Цветовое пространство : YUV
Субдискретизация насыщенности : 4:2:0
Битовая глубина : 8 бит
Тип развёртки : Прогрессивная
Бит/(Пиксели*Кадры) : 0.178
Размер потока : 838 Мбайт (85%)
Библиотека кодирования : x264 core 148 r2744kMod b97ae06
Настройки программы : cabac=1 / ref=16 / deblock=1:-2:1 / analyse=0x3:0x133 / me=umh / subme=10 / psy=1 / fade_compensate=0.00 / psy_rd=1.05:0.10 / mixed_ref=1 / me_range=32 / chroma_me=1 / trellis=2 / 8x8dct=1 / cqm=0 / deadzone=21,11 / fast_pskip=1 / chroma_qp_offset=-3 / threads=12 / lookahead_threads=3 / sliced_threads=0 / nr=0 / decimate=1 / interlaced=0 / bluray_compat=0 / constrained_intra=0 / bframes=16 / b_pyramid=2 / b_adapt=2 / b_bias=0 / direct=1 / weightb=1 / open_gop=0 / weightp=2 / keyint=250 / keyint_min=25 / scenecut=40 / intra_refresh=0 / rc_lookahead=60 / rc=crf / mbtree=1 / crf=17.8000 / qcomp=0.70 / qpmin=0 / qpmax=39 / qpstep=4 / ip_ratio=1.40 / aq=1:0.90
Язык : English
Default : Да
Forced : Нет
Цветовой диапазон : Limited
Основные цвета : BT.601 PAL
Характеристики трансфера : BT.470 System B, BT.470 System G
Коэффициенты матрицы : BT.601

Аудио
Идентификатор : 2
Формат : AC-3
Формат/Информация : Audio Coding 3
Параметр Endianness формата : Big
Идентификатор кодека : A_AC3
Продолжительность : 1 ч. 30 м.
Вид битрейта : Постоянный
Битрейт : 192 Кбит/сек
Каналы : 2 канала
Расположение каналов : Front: L R
Частота : 48,0 КГц
Частота кадров : 31,250 кадров/сек (1536 SPF)
Битовая глубина : 16 бит
Метод сжатия : С потерями
Задержка видео : 14 мс.
Размер потока : 124 Мбайт (13%)
Язык : Russian
Default : Да
Forced : Нет
 

Вложения

  • 20,1 KB Просмотры: 0
    Личеров 0
    Сидеров 0
    Файлов 1
    Объем 981,3 MB

Привет!

Мы группа людей которые решили помочь другим в решении их проблем, а так же пользователям с поиском самых свежих и качественных инфопродуктов. За 4 с небольшим месяца мы создали этот форум на который заходят ежедневно тысячи человек и посещаемость постоянно растёт. Мы создали панель лицензирования для защиты PHP скриптов от воровства и SEO панель для мониторинга наших сайтов и выбора верной стратегии их развития. Мы надеемся что то что мы создали пригодится Вам и возможно Вы поможете нам развиваться и совершенствоваться вместе с Вами.

Статистика форума

Темы
325.991
Сообщения
344.446
Пользователи
22.973
Новый пользователь
maxansk

Приложения форума для iOS и Android


У ркн там нет власти ;)
Гостевуха
Помощь Пользователи
    sntk Chat Bot: sntk покинул(а) комнату.