Самые быстрые в мире (1985) SATRip-AVC от KORSAR

Если Вы не хотите скачивать, Вы всегда можете посмотреть онлайн, просто нажмите кнопку ниже :

Открыть плеер

Torrent_Bot

Торрент-Бот
Бот форума
4 Окт 2016
5
1.004
20
#1


Самые быстрые в мире
უსწრაფესი მსოფლიოში






Страна: СССР
Жанр: Комедия
Год выпуска: 1985
Продолжительность: 01:09:36
Перевод: Не требуется

Режиссер: Георгий Матарадзе
В ролях: Рамаз Гиоргобиани, Зураб Капианидзе, Гиви Берикашвили, Тристан Саралидзе, Шота Схиртладзе, Амиран Буадзе, Заза Кашибадзе, Нестан Шария,
Гурам Пирцхалава, Марина Кахиани, Заза Колелишвили, Важа Пирцхелайшвили, Бердия Инцкирвели, Акакий Хидашели, Джемал Гаганидзе, Зураб Стуруа,
Отар Зауташвили, Бессарион (Бесо) Хидашели, Алеко Алавидзе, Гулчина Дадиани, Натела Микеладзе, Иванэ (Вано) Сакварелидзе, Вахтанг Тандилашвили,
Эльдар Сахтлхуцишвили, Гурам Гогуа, Малхаз Алавидзе, Вахтанг Матарадзе-Челтиспирели, Лаша Цинцадзе

Описание: Грузинский советский фильм, являющийся сборником коротких юмористических историй.
Основан на анекдотах связанных со свойствами и обычаями населяющих Грузию народностей и в первую очередь жителей района Рача.



За исходник спасибо Cheef mate

Кодек: х264
Качество: SATRip-AVC
Видео: MPEG-4 AVC, 2850 Кбит/с, 718х[email protected], 25 fps,
Аудио: АС3, 2 сh, 192 Кбит/с



Инфо файл
x264 [info]: frame I:532 Avg QP:17.23 size: 78410
x264 [info]: frame P:26509 Avg QP:20.30 size: 30534
x264 [info]: frame B:68362 Avg QP:21.46 size: 7433

Общее
Уникальный идентификатор : 210698140868404935996821169827503684463 (0x9E82FC62242F4F3299C0E8468C103B6F)
Полное имя : H:СССРСамые быстрые в мире 1985_SATRip-AVC_KORSAR.mkv
Формат : Matroska
Версия формата : Version 2
Размер файла : 1,35 Гбайт
Продолжительность : 1 ч. 3 м.
Общий поток : 3043 Кбит/сек
Дата кодирования : UTC 2018-12-18 18:08:19
Программа кодирования : mkvmerge v5.8.0 ('No Sleep / Pillow') built on Sep 2 2012 15:37:04
Библиотека кодирования : libebml v1.2.3 + libmatroska v1.3.0

Видео
Идентификатор : 1
Формат : AVC
Формат/Информация : Advanced Video Codec
Профиль формата : [email protected]
Настройки формата : CABAC / 15 Ref Frames
Параметр CABAC формата : Да
Параметр RefFrames формата : 15 кадров
Идентификатор кодека : V_MPEG4/ISO/AVC
Продолжительность : 1 ч. 3 м.
Битрейт : 2850 Кбит/сек
Ширина : 718 пикселей
Высота : 570 пикселей
Соотношение сторон : 4:3
Соотношение сторон в оригинале : 4:3
Режим частоты кадров : Постоянный
Частота кадров : 25,000 кадров/сек
Цветовое пространство : YUV
Субдискретизация насыщенности : 4:2:0
Битовая глубина : 8 бит
Тип развёртки : Прогрессивная
Бит/(Пиксели*Кадры) : 0.279
Размер потока : 1,24 Гбайт (92%)
Библиотека кодирования : x264 core 152 r2851kMod ba24899
Настройки программы : cabac=1 / ref=15 / deblock=1:-2:-2 / analyse=0x3:0x133 / me=umh / subme=11 / psy=1 / fade_compensate=0.00 / psy_rd=1.05:0.10 / mixed_ref=1 / me_range=48 / chroma_me=1 / trellis=2 / 8x8dct=1 / cqm=0 / deadzone=21,11 / fast_pskip=0 / chroma_qp_offset=-3 / threads=12 / lookahead_threads=3 / sliced_threads=0 / nr=0 / decimate=0 / interlaced=0 / bluray_compat=0 / constrained_intra=0 / bframes=10 / b_pyramid=2 / b_adapt=2 / b_bias=0 / direct=3 / weightb=1 / open_gop=0 / weightp=2 / keyint=250 / keyint_min=25 / scenecut=40 / intra_refresh=0 / rc_lookahead=40 / rc=2pass / mbtree=0 / bitrate=2850 / ratetol=1.0 / qcomp=0.60 / qpmin=0 / qpmax=39 / qpstep=4 / cplxblur=20.0 / qblur=0.5 / vbv_maxrate=50000 / vbv_bufsize=62500 / nal_hrd=none / filler=0 / ip_ratio=1.25 / pb_ratio=1.30 / aq=1:1.00
Язык : English
Default : Да
Forced : Нет
Цветовой диапазон : Limited
Основные цвета : BT.601 PAL
Характеристики трансфера : BT.470 System B, BT.470 System G
Коэффициенты матрицы : BT.470 System B, BT.470 System G

Аудио
Идентификатор : 2
Формат : AC-3
Формат/Информация : Audio Coding 3
Параметр Endianness формата : Big
Идентификатор кодека : A_AC3
Продолжительность : 1 ч. 3 м.
Вид битрейта : Постоянный
Битрейт : 192 Кбит/сек
Каналы : 2 канала
Расположение каналов : Front: L R
Частота : 48,0 КГц
Частота кадров : 31,250 кадров/сек (1536 SPF)
Битовая глубина : 16 бит
Метод сжатия : С потерями
Размер потока : 87,3 Мбайт (6%)
Язык : Russian
Default : Да
Forced : Нет

 

Вложения

  • 14,5 KB Просмотры: 0
    Личеров 0
    Сидеров 0
    Файлов 1
    Объем 1,4 GB

Привет!

Мы группа людей которые решили помочь другим в решении их проблем, а так же пользователям с поиском самых свежих и качественных инфопродуктов. За 4 с небольшим месяца мы создали этот форум на который заходят ежедневно тысячи человек и посещаемость постоянно растёт. Мы создали панель лицензирования для защиты PHP скриптов от воровства и SEO панель для мониторинга наших сайтов и выбора верной стратегии их развития. Мы надеемся что то что мы создали пригодится Вам и возможно Вы поможете нам развиваться и совершенствоваться вместе с Вами.

Статистика форума

Темы
324.994
Сообщения
343.389
Пользователи
22.925
Новый пользователь
Alligator007

Приложения форума для iOS и Android


У ркн там нет власти ;)
Гостевуха
Помощь Пользователи
    sntk Chat Bot: sntk покинул(а) комнату.