Сержант милиции (1974) SATRip-AVC от KORSAR

Если Вы не хотите скачивать, Вы всегда можете посмотреть онлайн, просто нажмите кнопку ниже :

Открыть плеер

Torrent_Bot

Торрент-Бот
Бот форума
4 Окт 2016
5
1.004
20
#1


Сержант милиции






Страна: СССР
Жанр: Детектив, криминал, экранизация
Год выпуска: 1974
Продолжительность: 01:01:41 + 01:03:11 + 01:01:12
Перевод: Не требуется
Режиссер: Герберт Раппапорт
В ролях: Алексей Минин, Татьяна Веденеева, Александр Александров (II), Любовь Соколова, Ирина Борисова, Сергей Межов,
Иван Краско, Анатолий Столбов, Олег Янковский, Никита Ширяев, Станислав Купецкий, Елена Алексеева, Валентина Чемберг,
Борис Тетерин, Виктор Чекмарёв, Светлана Меньшикова, Михаил Васильев, Светлана Агаджанова

Описание: Телефильм по одноименной повести Ивана Лазутина.

Приехавшего поступать в Ленинградский университет из Сибири Алексея Северцева ловко обманывают опытные преступники.
На вокзале им удается увлечь за собой и заманить Северцева в безлюдное место, избить и обворовать. Расследовать это происшествие поручают молодому сержанту милиции Николаю Захарову.



Доп: За исходный DVB спасибо Cheef mate

Кодек: х264
Качество: SATRip-AVC
Видео: MPEG-4 AVC, 712х[email protected], 25 fps, 3000 Кбит/с
Аудио: АС3, 2h, 192 Кбит/с
Субтитры: Нет

Скриншоты Инфо файл
x264 [info]: frame I:463 Avg QP:18.76 size: 66017
x264 [info]: frame P:23841 Avg QP:20.64 size: 33724
x264 [info]: frame B:70484 Avg QP:21.76 size: 8331

Общее
Уникальный идентификатор : 199512365462117477480351188728257194335 (0x9618AF138A29DB7FBA000DC5D584295F)
Полное имя : I:сссрСержант милиции 1974_SATRip-AVC_KORSARсержант милиции 1 серия 1974_SATRip-AVC_KORSAR.mkv
Формат : Matroska
Версия формата : Version 2
Размер файла : 1,38 Гбайт
Продолжительность : 1 ч. 1 м.
Общий поток : 3193 Кбит/сек
Дата кодирования : UTC 2018-03-13 14:34:14
Программа кодирования : mkvmerge v5.8.0 ('No Sleep / Pillow') built on Sep 2 2012 15:37:04
Библиотека кодирования : libebml v1.2.3 + libmatroska v1.3.0

Видео
Идентификатор : 1
Формат : AVC
Формат/Информация : Advanced Video Codec
Профиль формата : [email protected]
Настройки формата : CABAC / 14 Ref Frames
Параметр CABAC формата : Да
Параметр RefFrames формата : 14 кадров
Идентификатор кодека : V_MPEG4/ISO/AVC
Продолжительность : 1 ч. 1 м.
Битрейт : 3000 Кбит/сек
Ширина : 712 пикселей
Высота : 572 пикселя
Соотношение сторон : 4:3
Соотношение сторон в оригинале : 4:3
Режим частоты кадров : Постоянный
Частота кадров : 25,000 кадров/сек
Цветовое пространство : YUV
Субдискретизация насыщенности : 4:2:0
Битовая глубина : 8 бит
Тип развёртки : Прогрессивная
Бит/(Пиксели*Кадры) : 0.295
Размер потока : 1,27 Гбайт (92%)
Библиотека кодирования : x264 core 152 r2851kMod ba24899
Настройки программы : cabac=1 / ref=14 / deblock=1:-1:-1 / analyse=0x3:0x133 / me=umh / subme=11 / psy=1 / fade_compensate=0.00 / psy_rd=1.03:0.05 / mixed_ref=1 / me_range=48 / chroma_me=1 / trellis=2 / 8x8dct=1 / cqm=0 / deadzone=21,11 / fast_pskip=0 / chroma_qp_offset=-3 / threads=12 / lookahead_threads=2 / sliced_threads=0 / nr=0 / decimate=0 / interlaced=0 / bluray_compat=0 / constrained_intra=0 / bframes=8 / b_pyramid=2 / b_adapt=2 / b_bias=0 / direct=3 / weightb=1 / open_gop=0 / weightp=2 / keyint=250 / keyint_min=25 / scenecut=40 / intra_refresh=0 / rc_lookahead=40 / rc=2pass / mbtree=0 / bitrate=3000 / ratetol=1.0 / qcomp=0.60 / qpmin=0 / qpmax=39 / qpstep=4 / cplxblur=20.0 / qblur=0.5 / vbv_maxrate=50000 / vbv_bufsize=62500 / nal_hrd=none / filler=0 / ip_ratio=1.25 / pb_ratio=1.30 / aq=1:1.00
Язык : English
Default : Да
Forced : Нет
Цветовой диапазон : Limited
Основные цвета : BT.601 PAL
Характеристики трансфера : BT.470 System B, BT.470 System G
Коэффициенты матрицы : BT.470 System B, BT.470 System G

Аудио
Идентификатор : 2
Формат : AC-3
Формат/Информация : Audio Coding 3
Параметр Endianness формата : Big
Идентификатор кодека : A_AC3
Продолжительность : 1 ч. 1 м.
Вид битрейта : Постоянный
Битрейт : 192 Кбит/сек
Каналы : 2 канала
Расположение каналов : Front: L R
Частота : 48,0 КГц
Частота кадров : 31,250 кадров/сек (1536 SPF)
Битовая глубина : 16 бит
Метод сжатия : С потерями
Задержка видео : 7 мс.
Размер потока : 84,7 Мбайт (6%)
Язык : Russian
Default : Да
Forced : Нет

 

Вложения

  • 22 KB Просмотры: 0
    Личеров 0
    Сидеров 0
    Файлов 3
    Объем 4,2 GB

Привет!

Мы группа людей которые решили помочь другим в решении их проблем, а так же пользователям с поиском самых свежих и качественных инфопродуктов. За 4 с небольшим месяца мы создали этот форум на который заходят ежедневно тысячи человек и посещаемость постоянно растёт. Мы создали панель лицензирования для защиты PHP скриптов от воровства и SEO панель для мониторинга наших сайтов и выбора верной стратегии их развития. Мы надеемся что то что мы создали пригодится Вам и возможно Вы поможете нам развиваться и совершенствоваться вместе с Вами.

Статистика форума

Темы
324.972
Сообщения
343.312
Пользователи
22.856
Новый пользователь
djsail

Онлайн статистика

Пользователей онлайн
32
Гостей онлайн
220
Всего посетителей
252

Приложения форума для iOS и Android


У ркн там нет власти ;)
Гостевуха
Помощь Пользователи
    sntk Chat Bot: sntk покинул(а) комнату.