Сказ про то, как царь Пётр арапа женил (1976) DVDRip от New-Team

Если Вы не хотите скачивать, Вы всегда можете посмотреть онлайн, просто нажмите кнопку ниже :

Открыть плеер

Torrent_Bot

Торрент-Бот
Бот форума
4 Окт 2016
5
1.004
20
#1
84a678d474f95646a77e7af98896b2ad.png​Страна: СССР
Производство: Мосфильм
Жанр: мюзикл, мелодрама, комедия
Год выпуска: 1976
Продолжительность: 01:35:16

Перевод: не требуется
Оригинальная аудиодорожка: русский
Cубтитры: нет

Режиссер: Александр Митта

В ролях:
Владимир Высоцкий, Алексей Петренко, Иван Рыжов, Михаил Кокшенов, Ирина Мазуркевич, Женя Митта, Семен Морозов, Валерий Золотухин, Михаил Глузский, Олег Табаков, Александр Барушной, Владимир Кашпур, Василий Корнуков, Юрий Комаров, Валентина Клягина, Юрий Мартынов, Владимир Махов, Владимир Меньшов, Анатолий Обухов, Ирина Печерникова, Александр Пятков, Клара Румянова, Елена Рубцова, Николай Сергеев, Андрей Файт, Станислав Чекан, Людмила Чурсина, Леонид Чубаров, Людмила Давыдова, Виллор Кузнецов, Андрей Васильев, Александр Пашутин, Наталья Вавилова, Андрей Гусев, Михаил Метёлкин, Александр Граве (текст от автора)

Описание:
Однажды царю Петру I был подарен маленький чернокожий раб, африканский принц Ибрагим - добрый и смышленный мальчуган, который стал для императора не рабом, но другом и крестником, получил отчество Петрович и фамилию Петров, быстро усвоил все науки и, став взрослым, был отправлен во Францию для получения более глубоких знаний и изысканных манер. Вернувшись из Парижа, на одном из балов арап влюбился в дочь богатого дворянина Наташу Ртищеву. Семья - в панике, царь - в восторге, готовит брак своего любимца. Но Ибрагим отказывается жениться, поскольку девушка его не любит, она в ужасе от его внешности, ей рассказывают про арапа страшные сказки. Царь настаивает на своём, Ибрагим - на своём...


e813cd8e5d6a4180dc0b966a3003113a.gif
03dc0ea68d08d2a71d160411729f7bb3.png


Исходник: DVD5 R5
Тип релиза: DVDRip
Контейнер: AVI

Видео: 720x528 (4:3), 25 fps, XviD ~ 1734 kbps avg, 0.182 bit/pixel
Аудио: 48 kHz, Dolby AC3 5.1, 448 kbps
MediaInfo
Общее
Полное имя : Skaz.pro.to,kak.car.Petr.arapa.zhenil.1976.DVDRip_[Youtracker]_by_AVP Studio.avi
Формат : AVI
Формат/Информация : Audio Video Interleave
Размер файла : 1,46 Гбайт
Продолжительность : 1 ч. 35 м.
Общий поток : 2192 Кбит/сек
Программа кодирования : VirtualDubModRus 1.5.10.2 (build 2542/release)
Библиотека кодирования : VirtualDubMod build 2542/release

Видео
Идентификатор : 0
Формат : MPEG-4 Visual
Профиль формата : Advanced [email protected]
Параметр BVOP формата : 1
Параметр QPel формата : Нет
Параметр GMC формата : Без точки перехода
Параметр матрицы формата : Выборочная
Идентификатор кодека : XVID
Идентификатор кодека/Подсказка : XviD
Продолжительность : 1 ч. 35 м.
Битрейт : 1734 Кбит/сек
Ширина : 720 пикселей
Высота : 528 пикселей
Соотношение сторон : 4:3
Частота кадров : 25,000 кадров/сек
Цветовое пространство : YUV
Субдискретизация насыщенности : 4:2:0
Битовая глубина : 8 бит
Тип развёртки : Прогрессивная
Метод сжатия : С потерями
Бит/(Пиксели*Кадры) : 0.182
Размер потока : 1,15 Гбайт (79%)
Библиотека кодирования : XviD 73

Аудио
Идентификатор : 1
Формат : AC-3
Формат/Информация : Audio Coding 3
Расширение режима : CM (complete main)
Идентификатор кодека : 2000
Продолжительность : 1 ч. 35 м.
Вид битрейта : Постоянный
Битрейт : 448 Кбит/сек
Каналы : 6 каналов
Расположение каналов : Front: L C R, Side: L R, LFE
Частота : 48,0 КГц
Битовая глубина : 16 бит
Метод сжатия : С потерями
Размер потока : 305 Мбайт (20%)
Выравнивание : Разделение по промежуткам
Продолжительность промежутка : 40 мс. (1,00 видеокадр)
Время предзагрузки промежутка : 500 мс
Скриншоты
 

Вложения

Привет!

Мы группа людей которые решили помочь другим в решении их проблем, а так же пользователям с поиском самых свежих и качественных инфопродуктов. За 4 с небольшим месяца мы создали этот форум на который заходят ежедневно тысячи человек и посещаемость постоянно растёт. Мы создали панель лицензирования для защиты PHP скриптов от воровства и SEO панель для мониторинга наших сайтов и выбора верной стратегии их развития. Мы надеемся что то что мы создали пригодится Вам и возможно Вы поможете нам развиваться и совершенствоваться вместе с Вами.

Статистика форума

Темы
324.891
Сообщения
343.167
Пользователи
22.790
Новый пользователь
elegia

Онлайн статистика

Пользователей онлайн
359
Гостей онлайн
3.902
Всего посетителей
4.261

Приложения форума для iOS и Android


У ркн там нет власти ;)
Гостевуха
Помощь Пользователи
    Captain @ Captain: Батя в здание