Снафф / Snuff (1975) BDRip-AVC | L1

Если Вы не хотите скачивать, Вы всегда можете посмотреть онлайн, просто нажмите кнопку ниже :

Открыть плеер

Torrent_Bot

Торрент-Бот
Бот форума
4 Окт 2016
5
1.004
20
#1



Информация о фильме
Название: Снафф
Оригинальное название: Snuff
Год выхода: 1975
Жанр: ужасы
Режиссер: Майкл Файндлей / Michael Findlay, Горацио Фредрикссон / Horacio Fredriksson, Саймон Начтерн / Simon Nuchtern
В ролях: Маргарита Амучастеги, Ана Карро, Лилиана Фернандез Бланко, Майкл Файндлей, Роберта Файндлей, Альфредо Иглесиас, Энрике Ларрателли, Мирта Масса, Альдо Майо, Клао Вильянуэва

О фильме:
История вращается вокруг группы хиппи, которую возглавляет молодой парень по прозвищу «Сатана», и у коего в подчинении находятся четыре девушки, с которыми он спит, с которыми он устраивает кровавые игры, истязая друг дружку, с которыми он занимается наркоторговлей и убийствами.




Страна: Аргентина, США, Канада
Студия: August Films, Selected Pictures
Продолжительность: 01:20:02
Перевод: Любительский (одноголосый, закадровый) | den904

Файл
Кодек: H.264
Качество: BDRip-AVC (BDRemux 1080p)
Видео: [email protected]; 768x464; 1236 Кбит/сек; 23,976 кадра/сек; 0.145
Звук: HE-AAC / LC; 48,0 КГц / 24,0 КГц; 64,0 Кбит/сек; 2 канала
Субтитры: нет
Главы: Да


Скриншоты
MI
Общее
Уникальный идентификатор : 217987047136608329623548587125667106382 (0xA3FEC7354A4D65419BA0426E69B98E4E)
Полное имя : D:Фильмы_УжасыСнафф (1976) BDRip L1.mkv
Формат : Matroska
Версия формата : Version 4 / Version 2
Размер файла : 745 Мбайт
Продолжительность : 1 ч. 20 м.
Общий поток : 1302 Кбит/сек
Дата кодирования : UTC 2018-11-16 16:31:26
Программа кодирования : mkvmerge v9.8.0 ('Kuglblids') 64bit
Библиотека кодирования : libebml v1.3.4 + libmatroska v1.4.5

Видео
Идентификатор : 1
Формат : AVC
Формат/Информация : Advanced Video Codec
Профиль формата : [email protected]
Настройки формата : CABAC / 16 Ref Frames
Параметр CABAC формата : Да
Параметр RefFrames формата : 16 кадров
Идентификатор кодека : V_MPEG4/ISO/AVC
Продолжительность : 1 ч. 20 м.
Битрейт : 1236 Кбит/сек
Ширина : 768 пикселей
Высота : 464 пикселя
Соотношение сторон : 5:3
Режим частоты кадров : Постоянный
Частота кадров : 23,976 (24000/1001) кадра/сек
Цветовое пространство : YUV
Субдискретизация насыщенности : 4:2:0
Битовая глубина : 8 бит
Тип развёртки : Прогрессивная
Бит/(Пиксели*Кадры) : 0.145
Размер потока : 708 Мбайт (95%)
Библиотека кодирования : x264 core 157 r2935 545de2f
Настройки программы : cabac=1 / ref=16 / deblock=1:-1:-1 / analyse=0x3:0x133 / me=umh / subme=10 / psy=1 / psy_rd=1.00:0.15 / mixed_ref=1 / me_range=24 / chroma_me=1 / trellis=2 / 8x8dct=1 / cqm=0 / deadzone=21,11 / fast_pskip=1 / chroma_qp_offset=-3 / threads=6 / lookahead_threads=1 / sliced_threads=0 / nr=0 / decimate=1 / interlaced=0 / bluray_compat=0 / constrained_intra=0 / bframes=8 / b_pyramid=2 / b_adapt=2 / b_bias=0 / direct=3 / weightb=1 / open_gop=0 / weightp=2 / keyint=240 / keyint_min=23 / scenecut=40 / intra_refresh=0 / rc_lookahead=60 / rc=2pass / mbtree=0 / bitrate=1236 / ratetol=1.0 / qcomp=0.60 / qpmin=0 / qpmax=69 / qpstep=4 / cplxblur=20.0 / qblur=0.5 / vbv_maxrate=50000 / vbv_bufsize=62500 / nal_hrd=none / filler=0 / ip_ratio=1.40 / pb_ratio=1.30 / aq=1:1.00
Default : Да
Forced : Нет

Аудио
Идентификатор : 2
Формат : AAC
Формат/Информация : Advanced Audio Codec
Профиль формата : HE-AAC / LC
Настройки формата : Explicit
Идентификатор кодека : A_AAC-2
Продолжительность : 1 ч. 19 м.
Битрейт : 64,0 Кбит/сек
Каналы : 2 канала
Расположение каналов : Front: L R
Частота : 48,0 КГц / 24,0 КГц
Частота кадров : 23,438 кадра/сек (1024 SPF)
Метод сжатия : С потерями
Задержка видео : 31 мс.
Размер потока : 36,6 Мбайт (5%)
Заголовок : L1 (den904)
Язык : Russian
Default : Да
Forced : Нет

Меню
00:00:00.000 : en:00:00:00.000
00:05:04.887 : en:00:05:04.887
00:08:33.721 : en:00:08:33.721
00:14:42.965 : en:00:14:42.965
00:19:56.695 : en:00:19:56.695
00:24:07.529 : en:00:24:07.529
00:28:59.320 : en:00:28:59.320
00:34:12.759 : en:00:34:12.759
00:41:05.045 : en:00:41:05.045
00:47:16.834 : en:00:47:16.834
00:52:42.409 : en:00:52:42.409
00:57:34.868 : en:00:57:34.868
01:03:30.556 : en:01:03:30.556
01:08:33.025 : en:01:08:33.025
01:14:26.670 : en:01:14:26.670
 

Вложения

  • 15,4 KB Просмотры: 0
    Личеров 0
    Сидеров 0
    Файлов 1
    Объем 745,3 MB

Похожие темы

Привет!

Мы группа людей которые решили помочь другим в решении их проблем, а так же пользователям с поиском самых свежих и качественных инфопродуктов. За 4 с небольшим месяца мы создали этот форум на который заходят ежедневно тысячи человек и посещаемость постоянно растёт. Мы создали панель лицензирования для защиты PHP скриптов от воровства и SEO панель для мониторинга наших сайтов и выбора верной стратегии их развития. Мы надеемся что то что мы создали пригодится Вам и возможно Вы поможете нам развиваться и совершенствоваться вместе с Вами.

Статистика форума

Темы
324.971
Сообщения
343.296
Пользователи
22.849
Новый пользователь
АндрейЕ

Онлайн статистика

Пользователей онлайн
31
Гостей онлайн
220
Всего посетителей
251

Приложения форума для iOS и Android


У ркн там нет власти ;)
Гостевуха
Помощь Пользователи
    sntk Chat Bot: sntk покинул(а) комнату.