Сувенир для прокурора (1989) DVDRip-AVC от KORSAR

Если Вы не хотите скачивать, Вы всегда можете посмотреть онлайн, просто нажмите кнопку ниже :

Открыть плеер

Torrent_Bot

Торрент-Бот
Бот форума
4 Окт 2016
5
1.004
20
#1



Сувенир для прокурора
Жанр: Детектив, криминальный фильм
Год выпуска: 1989
Страна: СССР
Продолжительность: 01:25:55
Режиссёр: Александр Косарев
В ролях: Юрий Соломин, Галина Беляева, Пётр Вельяминов, Ирина Короткова, Вадим Спиридонов, Светлана Тома, Александр Серов, Иван Лапиков, Владимир Андреев, Александр Косарев, Сергей Мартынов, Римма Маркова, Николай Бурляев, Виктор Шульгин и другие

Описание: Измайлов, прокурор города (Соломин), озадачен гибелью заведующего складом машиностроительного завода, где директором работает муж подруги его жены. Зубцова убрали, так как он стал опасен для преступной группировки, занимающейся подпольным бизнесом. Выпив, он заснул в машине, а сидевший за рулем водитель (Спиридонов), член банды, пустил автомобиль под откос. Жена прокурора (Беляева) по приглашению жены директора отправляется отдыхать. Ее развлекают по полной программе — яхты, шампанское. Там, на отдыхе, и были сделаны фотоснимки с искусным монтажом — женщина в обнаженном виде в объятиях музыканта. Снимки в качестве сувенира были отправлены прокурору. В тяжелом состоянии он попадает в больницу. Следствие тем временем плотно село на хвост преступников, поставлявших с завода драгоценные металлы под видом отходов...

Релиз от:

Кодек: х264
Качество: DVDRip-AVC
Видео: MPEG-4 AVC, [email protected], 25 fps, 2011 Кбит/с
Звук: AC3, 2 ch, 192 Кбит/с



Инфо файл
x264 [info]: frame I:623 Avg QP:17.03 size: 64978
x264 [info]: frame P:29602 Avg QP:18.85 size: 27602
x264 [info]: frame B:98655 Avg QP:21.20 size: 4723
x264 [info]: consecutive B-frames: 2.0% 3.4% 11.0% 16.9% 26.4% 35.2% 3.9% 0.6% 0.4% 0.1% 0.0%
Общее
Уникальный идентификатор : 239114465227038700848722347856697915712 (0xB3E3C557D8D7821C9086F9DD817E7940)
Полное имя : D:Сувенир для прокурора_1989-DVDRip-AVC_KORSAR.mkv
Формат : Matroska
Версия формата : Version 2
Размер файла : 1,35 Гбайт
Продолжительность : 1 ч. 25 м.
Общий поток : 2248 Кбит/сек
Название фильма : Сувенир для прокурора_1989-DVDRip-AVC_KORSAR
Дата кодирования : UTC 2018-10-07 22:35:58
Программа кодирования : mkvmerge v5.8.0 ('No Sleep / Pillow') built on Sep 2 2012 15:37:04
Библиотека кодирования : libebml v1.2.3 + libmatroska v1.3.0

Видео
Идентификатор : 1
Формат : AVC
Формат/Информация : Advanced Video Codec
Профиль формата : [email protected]
Параметр CABAC формата : Да
Параметр RefFrames формата : 14 кадров
Идентификатор кодека : V_MPEG4/ISO/AVC
Продолжительность : 1 ч. 25 м.
Битрейт : 2011 Кбит/сек
Ширина : 678 пикселей
Высота : 572 пикселя
Соотношение сторон : 5:4
Соотношение сторон в оригинале : 5:4
Режим частоты кадров : Постоянный
Частота кадров : 25,000 кадров/сек
Цветовое пространство : YUV
Субдискретизация насыщенности : 4:2:0
Битовая глубина : 8 бит
Тип развёртки : Прогрессивная
Бит/(Пиксели*Кадры) : 0.207
Размер потока : 1,21 Гбайт (89%)
Библиотека кодирования : x264 core 152 r2851kMod ba24899
Настройки программы : cabac=1 / ref=14 / deblock=1:-2:-1 / analyse=0x3:0x133 / me=umh / subme=10 / psy=1 / fade_compensate=0.00 / psy_rd=1.05:0.10 / mixed_ref=1 / me_range=40 / chroma_me=1 / trellis=2 / 8x8dct=1 / cqm=0 / deadzone=21,11 / fast_pskip=1 / chroma_qp_offset=-3 / threads=12 / lookahead_threads=3 / sliced_threads=0 / nr=0 / decimate=1 / interlaced=0 / bluray_compat=0 / constrained_intra=0 / bframes=10 / b_pyramid=2 / b_adapt=2 / b_bias=0 / direct=1 / weightb=1 / open_gop=0 / weightp=2 / keyint=250 / keyint_min=25 / scenecut=40 / intra_refresh=0 / rc=crf / mbtree=0 / crf=18.0000 / qcomp=0.63 / qpmin=0 / qpmax=39 / qpstep=4 / ip_ratio=1.40 / pb_ratio=1.30 / aq=1:0.90
Язык : English
Default : Да
Forced : Нет
Цветовой диапазон : Limited
Основные цвета : BT.601 PAL
Характеристики трансфера : BT.470 System B, BT.470 System G
Коэффициенты матрицы : BT.601

Аудио
Идентификатор : 2
Формат : AC-3
Формат/Информация : Audio Coding 3
Параметр Endianness формата : Big
Идентификатор кодека : A_AC3
Продолжительность : 1 ч. 25 м.
Вид битрейта : Постоянный
Битрейт : 192 Кбит/сек
Каналы : 2 канала
Расположение каналов : Front: L R
Частота : 48,0 КГц
Частота кадров : 31,250 кадров/сек (1536 SPF)
Битовая глубина : 16 бит
Метод сжатия : С потерями
Размер потока : 118 Мбайт (9%)
Язык : Russian
Default : Да
Forced : Нет

Меню
00:00:00.000 : en:Chapter 1
00:03:33.000 : en:Chapter 2
00:09:19.200 : en:Chapter 3
00:18:38.400 : en:Chapter 4
00:31:13.200 : en:Chapter 5
00:38:45.600 : en:Chapter 6
00:46:39.000 : en:Chapter 7
00:56:09.600 : en:Chapter 8
01:06:05.400 : en:Chapter 9
01:15:57.600 : en:Chapter 10
01:25:24.000 : en:Chapter 11
 

Вложения

  • 14,4 KB Просмотры: 0
    Личеров 0
    Сидеров 0
    Файлов 1
    Объем 1,3 GB

Привет!

Мы группа людей которые решили помочь другим в решении их проблем, а так же пользователям с поиском самых свежих и качественных инфопродуктов. За 4 с небольшим месяца мы создали этот форум на который заходят ежедневно тысячи человек и посещаемость постоянно растёт. Мы создали панель лицензирования для защиты PHP скриптов от воровства и SEO панель для мониторинга наших сайтов и выбора верной стратегии их развития. Мы надеемся что то что мы создали пригодится Вам и возможно Вы поможете нам развиваться и совершенствоваться вместе с Вами.

Статистика форума

Темы
325.991
Сообщения
344.446
Пользователи
22.973
Новый пользователь
maxansk

Приложения форума для iOS и Android


У ркн там нет власти ;)
Гостевуха
Помощь Пользователи
    sntk Chat Bot: sntk покинул(а) комнату.