Тегеран 43 (1981) DVDRip-AVC

Если Вы не хотите скачивать, Вы всегда можете посмотреть онлайн, просто нажмите кнопку ниже :

Открыть плеер

Torrent_Bot

Торрент-Бот
Бот форума
4 Окт 2016
5
1.004
20
#1

Тегеран 43


Год выпуска: 1981
Жанр: политический детектив
Выпущено: СССР, Франция, Швейцария
Продолжительность: 01:13:55 + 01:10:41
Перевод: Не требуется

Режиссер: Александр Алов, Владимир Наумов
В ролях: Игорь Костолевский, Наталия Белохвостикова, Ален Делон (озвучание - Родион Нахапетов), Курт Юргенс, Армен Джигарханян, Альберт Филозов, Николай Гринько, Жорж Жере, Клод Жад (озвучание - Наталья Фатеева), Глеб Стриженов (озвучание - Михаил Глузский), Всеволод Санаев, Нартай Бегалин, Жес Ан, Майк Маршалл, Абессалом Лория, Наталья Наумова, Алескер Мамед-оглы, Жак Ру, Вацлав Дворжецкий, Эвелин Крафт, Юрий Квятковский, Даниель Дарно, Елена Добронравова, Нодар Шашик-оглы, Владимир Басов, Баадур Цуладзе, Арутюн Акопян (озвучание - Владимир Ферапонтов), Леонид Довлатов, Фархад Гусейнов, Михаил Херхеулидзе, Алексей Задачин, Георгий Саакян, Маирбек Цихиев, Игорь Класс (озвучание - Олег Голубицкий), Чеслав Сушкевич, Александр Январёв, Александр Микулин, Дмитрий Матвеев, Андрей Юренев, Руслан Микаберидзе, Валерий Данилин, Муса Дудаев, Григорий Дунаев, Олег Фёдоров, Александр Андриенко, Валерий Лущевский, Николай Симкин, Николай Горлов, Ги Делорм, Жак Пизиа, Ганс-Дитер Шлегель, Ролан Мале, Леонид Недович. Александр Сажин, Артем Карапетян (текст за кадром)

О фильме: Фильм рассказывает о попытке гитлеровских агентов сорвать Тегеранскую мирную конференцию и организовать покушение на ее участников - глав правительств СССР, США и Англии. Действие картины происходит в 1943 году и в 1980-е годы. Через 35 лет вновь всплывает тегеранское дело, участники которого - руководители и организаторы тайных убийств - в то время ушли от возмездия. Советский разведчик Андрей Бородин, сорвавший планы фашистов, и парижанка Мари Луни встретятся в Тегеране и будут вовлечены в опасную игру...



Кодек: х264
Качество: DVDRip-AVC
Видео: MPEG-4 AVC, 2347 Кбит/с, 716х[email protected], 25 fps
Аудио: АС3, 6 ch, 448 Кбит/с, АС3, 1 ch, 256 Кбит/с
Субтитры: Нет
Главы: Есть

Инфо файл
x264 [info]: frame I:582 Avg QP:16.12 size: 81429
x264 [info]: frame P:23304 Avg QP:18.77 size: 30470
x264 [info]: frame B:87012 Avg QP:20.07 size: 6251

Общее
Уникальный идентификатор : 215746464858074216328056784256241717532 (0xA24F41F90F0C16D781589517573F511C)
Полное имя : I:сссрТегеран 43 1980_DVDRip-AVCТегеран 43 1 серия 1980_DVDRip-AVC.mkv
Формат : Matroska
Версия формата : Version 2
Размер файла : 1,58 Гбайт
Продолжительность : 1 ч. 13 м.
Общий поток : 3053 Кбит/сек
Название фильма : Тегеран 43 1980 от mister.hats
Дата кодирования : UTC 2018-09-01 08:22:01
Программа кодирования : mkvmerge v5.8.0 ('No Sleep / Pillow') built on Sep 2 2012 15:37:04
Библиотека кодирования : libebml v1.2.3 + libmatroska v1.3.0

Видео
Идентификатор : 1
Формат : AVC
Формат/Информация : Advanced Video Codec
Профиль формата : [email protected]
Настройки формата : CABAC / 14 Ref Frames
Параметр CABAC формата : Да
Параметр RefFrames формата : 14 кадров
Идентификатор кодека : V_MPEG4/ISO/AVC
Продолжительность : 1 ч. 13 м.
Битрейт : 2347 Кбит/сек
Ширина : 716 пикселей
Высота : 558 пикселей
Соотношение сторон : 4:3
Соотношение сторон в оригинале : 4:3
Режим частоты кадров : Постоянный
Частота кадров : 25,000 кадров/сек
Цветовое пространство : YUV
Субдискретизация насыщенности : 4:2:0
Битовая глубина : 8 бит
Тип развёртки : Прогрессивная
Бит/(Пиксели*Кадры) : 0.235
Размер потока : 1,18 Гбайт (75%)
Библиотека кодирования : x264 core 152 r2851kMod ba24899
Настройки программы : cabac=1 / ref=14 / deblock=1:-2:-1 / analyse=0x3:0x133 / me=umh / subme=11 / psy=1 / fade_compensate=0.00 / psy_rd=1.00:0.05 / mixed_ref=1 / me_range=48 / chroma_me=1 / trellis=2 / 8x8dct=1 / cqm=0 / deadzone=21,11 / fast_pskip=0 / chroma_qp_offset=-3 / threads=12 / lookahead_threads=3 / sliced_threads=0 / nr=0 / decimate=0 / interlaced=0 / bluray_compat=0 / constrained_intra=0 / bframes=10 / b_pyramid=2 / b_adapt=2 / b_bias=0 / direct=3 / weightb=1 / open_gop=0 / weightp=2 / keyint=250 / keyint_min=25 / scenecut=40 / intra_refresh=0 / rc_lookahead=40 / rc=2pass / mbtree=0 / bitrate=2347 / ratetol=1.0 / qcomp=0.60 / qpmin=0 / qpmax=39 / qpstep=4 / cplxblur=20.0 / qblur=0.5 / vbv_maxrate=50000 / vbv_bufsize=62500 / nal_hrd=none / filler=0 / ip_ratio=1.25 / pb_ratio=1.30 / aq=1:1.00
Язык : English
Default : Да
Forced : Нет
Цветовой диапазон : Limited
Основные цвета : BT.601 PAL
Характеристики трансфера : BT.470 System B, BT.470 System G
Коэффициенты матрицы : BT.470 System B, BT.470 System G

Аудио #1
Идентификатор : 2
Формат : AC-3
Формат/Информация : Audio Coding 3
Параметр Endianness формата : Big
Идентификатор кодека : A_AC3
Продолжительность : 1 ч. 13 м.
Вид битрейта : Постоянный
Битрейт : 448 Кбит/сек
Каналы : 6 каналов
Расположение каналов : Front: L C R, Side: L R, LFE
Частота : 48,0 КГц
Частота кадров : 31,250 кадров/сек (1536 SPF)
Битовая глубина : 16 бит
Метод сжатия : С потерями
Задержка видео : 396 мс.
Размер потока : 237 Мбайт (15%)
Язык : Russian
Default : Да
Forced : Нет

Аудио #2
Идентификатор : 3
Формат : AC-3
Формат/Информация : Audio Coding 3
Параметр Endianness формата : Big
Идентификатор кодека : A_AC3
Продолжительность : 1 ч. 13 м.
Вид битрейта : Постоянный
Битрейт : 256 Кбит/сек
Каналы : 1 канал
Расположение каналов : Front: C
Частота : 48,0 КГц
Частота кадров : 31,250 кадров/сек (1536 SPF)
Битовая глубина : 16 бит
Метод сжатия : С потерями
Задержка видео : 335 мс.
Размер потока : 135 Мбайт (8%)
Язык : Russian
Default : Нет
Forced : Нет

Меню
00:00:00.000 : en:Chapter 1
00:06:45.000 : en:Chapter 2
00:12:47.400 : en:Chapter 3
00:17:53.400 : en:Chapter 4
00:25:25.200 : en:Chapter 5
00:28:04.800 : en:Chapter 6
00:35:52.200 : en:Chapter 7
00:41:39.000 : en:Chapter 8
00:47:51.000 : en:Chapter 9
00:53:42.600 : en:Chapter 10
01:00:42.000 : en:Chapter 11
01:11:31.800 : en:Chapter 12

Общее
Уникальный идентификатор : 197770342503309523376644944881780243651 (0x94C92EB69BC5A7FFB04A0DE44AF7BCC3)
Полное имя : I:сссрТегеран 43 1980_DVDRip-AVCТегеран 43 2 серия 1980_DVDRip-AVC.mkv
Формат : Matroska
Версия формата : Version 2
Размер файла : 1,51 Гбайт
Продолжительность : 1 ч. 10 м.
Общий поток : 3053 Кбит/сек
Название фильма : Тегеран 43 1980 от mister.hats
Дата кодирования : UTC 2018-09-01 16:05:49
Программа кодирования : mkvmerge v5.8.0 ('No Sleep / Pillow') built on Sep 2 2012 15:37:04
Библиотека кодирования : libebml v1.2.3 + libmatroska v1.3.0

Видео
Идентификатор : 1
Формат : AVC
Формат/Информация : Advanced Video Codec
Профиль формата : [email protected]
Настройки формата : CABAC / 14 Ref Frames
Параметр CABAC формата : Да
Параметр RefFrames формата : 14 кадров
Идентификатор кодека : V_MPEG4/ISO/AVC
Продолжительность : 1 ч. 10 м.
Битрейт : 2347 Кбит/сек
Ширина : 716 пикселей
Высота : 558 пикселей
Соотношение сторон : 4:3
Соотношение сторон в оригинале : 4:3
Режим частоты кадров : Постоянный
Частота кадров : 25,000 кадров/сек
Цветовое пространство : YUV
Субдискретизация насыщенности : 4:2:0
Битовая глубина : 8 бит
Тип развёртки : Прогрессивная
Бит/(Пиксели*Кадры) : 0.235
Размер потока : 1,13 Гбайт (75%)
Библиотека кодирования : x264 core 152 r2851kMod ba24899
Настройки программы : cabac=1 / ref=14 / deblock=1:-2:-1 / analyse=0x3:0x133 / me=umh / subme=11 / psy=1 / fade_compensate=0.00 / psy_rd=1.00:0.05 / mixed_ref=1 / me_range=48 / chroma_me=1 / trellis=2 / 8x8dct=1 / cqm=0 / deadzone=21,11 / fast_pskip=0 / chroma_qp_offset=-3 / threads=12 / lookahead_threads=3 / sliced_threads=0 / nr=0 / decimate=0 / interlaced=0 / bluray_compat=0 / constrained_intra=0 / bframes=10 / b_pyramid=2 / b_adapt=2 / b_bias=0 / direct=3 / weightb=1 / open_gop=0 / weightp=2 / keyint=250 / keyint_min=25 / scenecut=40 / intra_refresh=0 / rc_lookahead=40 / rc=2pass / mbtree=0 / bitrate=2347 / ratetol=1.0 / qcomp=0.60 / qpmin=0 / qpmax=39 / qpstep=4 / cplxblur=20.0 / qblur=0.5 / vbv_maxrate=50000 / vbv_bufsize=62500 / nal_hrd=none / filler=0 / ip_ratio=1.25 / pb_ratio=1.30 / aq=1:1.00
Язык : English
Default : Да
Forced : Нет
Цветовой диапазон : Limited
Основные цвета : BT.601 PAL
Характеристики трансфера : BT.470 System B, BT.470 System G
Коэффициенты матрицы : BT.470 System B, BT.470 System G

Аудио #1
Идентификатор : 2
Формат : AC-3
Формат/Информация : Audio Coding 3
Параметр Endianness формата : Big
Идентификатор кодека : A_AC3
Продолжительность : 1 ч. 10 м.
Вид битрейта : Постоянный
Битрейт : 448 Кбит/сек
Каналы : 6 каналов
Расположение каналов : Front: L C R, Side: L R, LFE
Частота : 48,0 КГц
Частота кадров : 31,250 кадров/сек (1536 SPF)
Битовая глубина : 16 бит
Метод сжатия : С потерями
Размер потока : 227 Мбайт (15%)
Язык : Russian
Default : Да
Forced : Нет

Аудио #2
Идентификатор : 3
Формат : AC-3
Формат/Информация : Audio Coding 3
Параметр Endianness формата : Big
Идентификатор кодека : A_AC3
Продолжительность : 1 ч. 10 м.
Вид битрейта : Постоянный
Битрейт : 256 Кбит/сек
Каналы : 1 канал
Расположение каналов : Front: C
Частота : 48,0 КГц
Частота кадров : 31,250 кадров/сек (1536 SPF)
Битовая глубина : 16 бит
Метод сжатия : С потерями
Размер потока : 130 Мбайт (8%)
Язык : Russian
Default : Нет
Forced : Нет

Меню
00:00:00.000 : en:Chapter 1
00:03:28.800 : en:Chapter 2
00:09:24.000 : en:Chapter 3
00:16:10.200 : en:Chapter 4
00:18:40.800 : en:Chapter 5
00:29:50.400 : en:Chapter 6
00:36:33.600 : en:Chapter 7
00:39:43.200 : en:Chapter 8
00:46:05.400 : en:Chapter 9
00:54:30.600 : en:Chapter 10
00:59:21.600 : en:Chapter 11
01:07:01.200 : en:Chapter 12
Скриншоты
 

Вложения

  • 16,5 KB Просмотры: 0
    Личеров 0
    Сидеров 0
    Файлов 2
    Объем 3,1 GB

Привет!

Мы группа людей которые решили помочь другим в решении их проблем, а так же пользователям с поиском самых свежих и качественных инфопродуктов. За 4 с небольшим месяца мы создали этот форум на который заходят ежедневно тысячи человек и посещаемость постоянно растёт. Мы создали панель лицензирования для защиты PHP скриптов от воровства и SEO панель для мониторинга наших сайтов и выбора верной стратегии их развития. Мы надеемся что то что мы создали пригодится Вам и возможно Вы поможете нам развиваться и совершенствоваться вместе с Вами.

Статистика форума

Темы
325.991
Сообщения
344.446
Пользователи
22.973
Новый пользователь
maxansk

Приложения форума для iOS и Android


У ркн там нет власти ;)
Гостевуха
Помощь Пользователи
    sntk Chat Bot: sntk покинул(а) комнату.